<?xml version="1.0" standalone="no"?>
<!DOCTYPE svg PUBLIC "-//W3C//DTD SVG 1.1//EN" "http://www.w3.org/Graphics/SVG/1.1/DTD/svg11.dtd" >
<svg xmlns="http://www.w3.org/2000/svg" xmlns:xlink="http://www.w3.org/1999/xlink" version="1.1">
<metadata>
Created by FontForge 20170515 at Wed Aug 23 07:08:25 2017
 By fw_worker
Copyright (c) Typographer Mediengestaltung, 2000. All rights reserved.
</metadata>
<defs>
<font id="DevinneSwash" horiz-adv-x="608" >
  <font-face 
    font-family="Devinne Swash"
    font-weight="400"
    font-stretch="normal"
    units-per-em="1000"
    panose-1="2 0 5 3 2 0 0 2 0 3"
    ascent="800"
    descent="-200"
    x-height="507"
    cap-height="734"
    bbox="-21 -271 1415 999"
    underline-thickness="109"
    underline-position="953"
    unicode-range="U+001A-E002"
  />
<missing-glyph horiz-adv-x="500" 
 />
    <glyph glyph-name=".notdef" horiz-adv-x="500" 
 />
    <glyph glyph-name="fi" horiz-adv-x="697" 
d="M617 658l-6 26q-2 5 -6 14t-10 20l-30 18q-4 2 -13 4.5t-23 6.5l-38 -11l-27 -18l-16 -29l-6 -31l7 -33l15 -28l28 -19l37 -9l36 9l30 19l16 31zM680 36l-36 3l-12 6l-9 11l-5 18l-2 445l-71 -12l-88 -29l-40 -20l-37 -22l34 -4l22 -17l6 -20l2 -292l-6 -37l-11 -22
l-27 -9h-42v1l-53 3q-13 7 -22 17l-5 18l-3 388h87l-1 68h-84l-5 35l-7 28l-24 34l-8 17l-6 25l3 21q3 8 12 17l22 6l19 1l12 -12l5 -5q2 -2 5 -9.5t8 -18.5l11 -26l15 -18l21 -10l20 -1l19 7l18 10l8 15q2 8 2 12v11l-17 35l-17 23l-24 13l-35 16l-31 4h-47l-37 -9l-39 -17
l-28 -25l-24 -28l-15 -41q-4 -12 -9 -50v-61h-86v-67h86l1 -359l-6 -37l-10 -22l-27 -9h-21v-33h638z" />
    <glyph glyph-name="fl" horiz-adv-x="697" 
d="M357 35v1l-52 3q-13 7 -22 17l-5 18l-3 388h87v67l-85 1l-5 35l-7 28l-24 34l-8 17l-6 25l3 21q3 8 12 17l22 6l19 1l12 -12l5 -5q2 -2 5 -9.5t8 -18.5l11 -26l15 -18l21 -10l20 -1l19 7l18 10l8 15q2 8 2 12v7l8 -6l6 -20l2 -536l-6 -37l-11 -22l-27 -9h-42zM679 36
l-36 3l-12 6l-9 11l-7 708l-71 -14l-88 -26l-39 -19l-6 -4l-1 3l-17 23l-24 13l-35 16l-31 4h-47l-37 -9l-39 -17l-28 -25l-24 -28l-15 -41q-4 -12 -9 -50v-61h-86v-67h86l1 -359l-6 -37l-10 -22l-27 -9h-21v-33h637z" />
    <glyph glyph-name="Lslash" horiz-adv-x="709" 
d="M423 364l-33 68l-89 -43l1 247l5 36l11 22q11 7 21 7l26 1v32h-322l1 -31l35 -4l22 -17l4 -18q0 1 2 -7l1 -362l-108 -53l33 -68l75 36v-107l-6 -37l-10 -22q-7 -2 -12 -4t-9 -4l-28 -1v-33h536q20 0 35 -5q8 -5 15.5 -10t15.5 -10l47 241l-23 23l-16 -42l-16 -28
l-26 -29l-34 -29l-37 -21l-39 -19q-11 -5 -23.5 -9t-27.5 -8l-45 -10l-55 -9q-6 -1 -13 -1.5t-15 -0.5h-22l1 269z" />
    <glyph glyph-name="lslash" horiz-adv-x="424" 
d="M423 359l-33 68l-92 -45l-4 382l-71 -14l-88 -26l-39 -19l-38 -25l34 -4l22 -17l6 -20l1 -343l-121 -59l33 -68l89 43v-109l-6 -37l-11 -22l-27 -9h-21v-33h300l1 34l-36 3l-12 6l-9 11l-2 242z" />
    <glyph glyph-name="Zcaron" horiz-adv-x="739" 
d="M533 997l-130 -92l-131 92l98 -172h67zM720 230l-14 16l-23 -32l-20 -21q-17 -7 -39 -7l-367 -1l441 578l-47 -23l-31 -6h-453l-23 8l-21 21l-80 -256h16l38 33q5 3 12 6t17 5h344l-452 -562l36 11l502 2q24 0 39 -4l28 -9z" />
    <glyph glyph-name="zcaron" horiz-adv-x="595" 
d="M483 751l-130 -92l-132 92l98 -173h67zM576 523l-39 -12q-12 -4 -28 -4h-299l-36 5l-42 11l-50 -210l22 32l22 22l21 6q10 2 21 2l213 -1l-363 -385l76 12l354 1q15 0 24 -6q7 -7 12.5 -13t10.5 -12l42 208l-19 -23q-4 -6 -25 -20q-20 -5 -31 -5l-250 -1z" />
    <glyph glyph-name="space" unicode=" " horiz-adv-x="580" 
 />
    <glyph glyph-name="exclam" unicode="!" horiz-adv-x="274" 
d="M255 664l-35 15l-31 19l-27 30l-24 36l-28 -38l-28 -30l-31 -19l-32 -13l30 -51l23 -62l19 -80l15 -81l17 -133l23 1l5 63l8 69l15 81l9 40l12 40l11 31l14 31q10 22 20 32zM233 101l-8 35l-16 34q-23 18 -33 21q-16 5 -26 7.5t-15 3.5l-40 -11l-31 -19l-18 -34l-7 -35
l7 -36l18 -32l27 -18q13 -8 45 -14l40 10q17 7 33 20l17 33z" />
    <glyph glyph-name="quotedbl" unicode="&#x22;" horiz-adv-x="399" 
d="M379 679l-10 28l-12 21l-25 12q-6 4 -25 7l-24 -5l-21 -9l-12 -16l-9 -17l-4 -24q-3 -20 -2 -30l3 -35l7 -35l10 -34l13 -38l18 -45l21 -43l43 103l15 52l10 39l4 29v40zM165 679l-10 28l-12 21l-25 12q-6 4 -25 7l-24 -5l-21 -9l-14 -16l-9 -17l-4 -25l-1 -29l3 -30
l8 -40l10 -34l13 -38l18 -45l21 -43l44 103l12 44l12 47l4 29v40z" />
    <glyph glyph-name="numbersign" unicode="#" horiz-adv-x="425" 
d="M407 460v44h-98l11 89h-45l-10 -89h-86l11 89h-41l-12 -89h-75v-44h70l-9 -89h-105v-45h100l-12 -88h43l10 88h86l-11 -88h41l12 88h75v45h-69l11 89h103zM262 460l-11 -89h-86l8 89h89z" />
    <glyph glyph-name="dollar" unicode="$" horiz-adv-x="743" 
d="M724 245l-11 65l-20 41l-22 32l-30 26l-34 27l-46 22l-62 24q-49 11 -57 11l-64 11l-1 193l53 -8l36 -18l50 -60l32 -21q7 -4 50 -10l19 6l18 12l13 20q9 13 19 38l9 38q5 8 5 49l-1 -5l-17 -17l-31 -16l-44 -6l-29 8l-93 36l-35 8q-5 2 -18.5 4t-34.5 4l-1 59h-47v-60
l-54 -7l-53 -8l-49 -17l-34 -16l-35 -24l-25 -23l-21 -30l-12 -27l-6 -41v-29l10 -29l17 -33l23 -26l33 -30l35 -22l52 -24l51 -16l69 -15l-1 -266l-47 11l-43 14l-38 27l-33 36q-8 17 -13 29t-6 17l-13 60l-23 -22l-33 -35l-23 -34l-18 -35l-13 -39q-2 -5 -4 -14.5
t-4 -23.5v-23l1 -23l4 -27l29 17q16 7 26.5 11t16.5 6h76l79 -16l80 -11l-1 -62h47v62l61 6l53 10l50 16l55 25l33 25l32 27l24 31l24 39l9 33zM331 515l-48 23l-38 26l-20 29q-4 4 -7 30l10 27l20 25q25 13 36 14q7 3 46 8zM536 185l-9 -25l-14 -27l-23 -19l-28 -18
l-43 -13l-41 -6l-1 246l49 -18l47 -19l27 -24l21 -22q10 -23 11 -30z" />
    <glyph glyph-name="percent" unicode="%" horiz-adv-x="461" 
d="M240 560q1 9 1.5 14t0.5 6v22l-2 20l-17 31l-19 26q-14 7 -22.5 11t-13.5 5l-38 7l-37 -7l-35 -16l-20 -25l-16 -32l-2 -31v-13q2 -10 2 -18l16 -32l20 -24l35 -17l38 -6l36 6l37 17l20 23zM441 702h-51l-368 -645h47zM433 138l3 31l-3 31l-15 31l-21 25l-35 17l-37 7
l-39 -8l-36 -16l-20 -24l-16 -32l-2 -31v-13q2 -10 2 -18l16 -33l20 -24q7 -4 11.5 -6.5t8.5 -4.5q6 -2 10 -3.5t6 -2.5l38 -7l37 8l36 16q24 24 36 57zM199 558q-16 -19 -22 -22l-35 -12l-28 10q-13 5 -29 24l-6 32l6 33q15 18 21 21l35 13l34 -13l24 -21l6 -33zM373 136
q-16 -19 -22 -22l-35 -12l-35 11q-8 5 -22 21l-6 33l6 34q8 10 14 15.5t9 7.5q4 2 12.5 4.5t22.5 6.5q34 -10 56 -34l6 -33z" />
    <glyph glyph-name="ampersand" unicode="&#x26;" horiz-adv-x="734" 
d="M715 306l-6 35l-10 31l-33 57l-13 24l-9 26v11l1 27l8 29l-55 -25l-53 -29l-25 -25l-7 -19l7 -20l12 -18l25 -20l26 -19l43 -38l9 -21l4 -22q-8 -21 -13 -26l-29 -29l-43 -22l-45 -13l-54 -8l-54 -1l-77 1l-44 2l-48 13l-25 14l-27 25l-12 24l-3 26l6 32l13 31l26 32
l31 29l49 -33l29 -21l27 -23l25 -34l15 -22l7 -20l1 -23v-19q36 33 41 39l34 41q6 15 9 23.5t4 10.5l6 35l-7 26l-12 25l-18 18l-25 24l-52 24l38 20l36 28l18 30l14 35l-1 29l-9 30l-24 28l-30 21q-47 17 -103 23l-48 -6l-45 -12l-32 -20l-28 -21l-23 -32q-19 -25 -19 -68
v-29l12 -34l12 -23l29 -28l31 -20l-87 -45l-35 -29l-29 -28l-21 -35l-10 -35q0 -36 3 -52l7 -38l11 -38l18 -32l26 -29l28 -24l36 -19l37 -17l48 -12l34 -6h13l31 -1h46l44 7l44 9l40 14l41 18l30 20l40 30l42 50l52 73l16 43q2 5 4 15t4 25zM387 621l-1 -30l-7 -27l-18 -22
l-21 -19l-31 15l-26 22l-19 26l-13 26l-2 19l6 28l21 13q6 3 32 8l29 -2l25 -10l17 -29z" />
    <glyph glyph-name="quotesingle" unicode="'" horiz-adv-x="181" 
d="M165 679l-10 28l-12 21l-25 12q-6 4 -25 7l-24 -5l-21 -9l-14 -16l-9 -17l-4 -25l-1 -29l3 -30l8 -40l10 -34l13 -38l18 -45l21 -43l44 103l12 44l12 47l4 29v40z" />
    <glyph glyph-name="parenleft" unicode="(" horiz-adv-x="937" 
d="M921 562v33l-2 34l-9 31l-11 29q-13 15 -17 16l-23 14l-55 -2l-45 -4l-105 -15l-105 -23l-100 -29l-92 -34l-79 -37l-61 -38l-23 -20l-17 -17l-24 -33l-20 -31l-20 -41l-16 -38l-30 -89l-23 -96l-10 -62l-7 -47l-8 -89v-83l8 -69l7 -24l9 -26q7 -5 14.5 -9t15.5 -8l51 -6
l53 7l21 12l20 13l-13 160l-48 -29l-38 -11l-23 4l-10 9l-7 10l-6 34l2 22l5 23l21 59l16 35l17 35l38 67l60 86l75 93l33 36l38 38l40 38l41 34l61 48l56 34l30 15l30 13l42 12l35 4l31 -7l17 -13l7 -19l-6 -31l-15 -30z" />
    <glyph glyph-name="parenright" unicode=")" horiz-adv-x="949" 
d="M930 557l-2 51l-4 53l-9 42q-22 12 -31 14l-18 7h-33l-32 1l-28 -11l-23 -16l-1 -174l26 25l28 12l23 -1l22 -13l15 -27l4 -29v-12l-8 -54l-25 -68l-13 -29l-21 -38l-63 -94l-33 -42l-53 -65l-101 -89l-103 -80l-74 -49l-73 -35l-48 -13l-37 -1l-27 12q-8 12 -9 22l1 16
l4 16l8 19l9 15l-180 1q-2 -17 -3.5 -26.5t-1.5 -11.5v-26l7 -37l11 -34l16 -22l21 -16h84l91 11l92 16l92 24l101 35l82 36l71 42l60 45l21 21l23 24l30 54l28 65l20 60l21 74l17 79l13 77l8 75z" />
    <glyph glyph-name="asterisk" unicode="*" horiz-adv-x="343" 
d="M324 529v45h-97l69 69l-33 30l-72 -71v104h-45v-104l-72 71l-32 -30l69 -69h-92v-45h92l-69 -69l32 -31l72 72v-106h45v106l72 -72l33 31l-69 69h97z" />
    <glyph glyph-name="plus" unicode="+" horiz-adv-x="548" 
d="M312 269h230v75h-230v240h-76v-240h-230v-75h230v-238h76v238z" />
    <glyph glyph-name="comma" unicode="," horiz-adv-x="254" 
d="M235 40l-2 37l-9 46l-16 31l-22 26l-37 16l-34 6l-39 -8q-21 -8 -32 -15l-18 -26l-7 -26l7 -28l18 -26q23 -15 31 -17l41 -8q8 -30 8 -47l-6 -23l-10 -26l-17 -26l-17 -22l-49 -37l57 11l58 20l34 30l31 31l18 41z" />
    <glyph glyph-name="hyphen" unicode="-" horiz-adv-x="431" 
d="M410 273v53h-388l-1 -53h389z" />
    <glyph glyph-name="period" unicode="." horiz-adv-x="235" 
d="M215 101l-8 35l-16 34q-24 18 -34 21q-16 5 -26 7.5t-15 3.5l-40 -11l-31 -19l-18 -34l-7 -35l7 -36l18 -32l27 -18q13 -8 45 -14l41 10q17 7 33 20l17 33z" />
    <glyph glyph-name="slash" unicode="/" horiz-adv-x="407" 
d="M391 867h-54l-321 -968h53z" />
    <glyph glyph-name="zero" unicode="0" horiz-adv-x="568" 
d="M548 298l-8 78l-18 48l-16 36l-47 59l-34 22q-16 8 -26.5 14t-16.5 9l-37 7q-19 4 -47 4l-43 -10l-27 -11l-23 -26l-15 -31l-3 -22l-1 -17v-18l4 -26l56 20l53 13q33 0 51 -5l33 -10l35 -26l22 -21l16 -33l11 -34l1 -36l-3 -35l-13 -33l-18 -30l-29 -24q-5 -5 -9 -6
l-25 -11l-24 -3l-22 -2l-49 4l-31 12l-33 20l-25 27l-25 34q-8 19 -15 37.5t-12 35.5l-4 23v43l1 24l15 49l21 44l10 16l-38 -13l-35 -18l-28 -28l-24 -32l-15 -35q-4 -6 -14 -43l-4 -49v-39l6 -45l13 -42l20 -39l27 -38l28 -25l47 -32l48 -16l56 -10l50 6l46 11l51 25
l36 25l27 29l26 32l18 38l19 48z" />
    <glyph glyph-name="one" unicode="1" horiz-adv-x="338" 
d="M319 36l-36 3l-12 6l-9 11l-7 541l-30 -21l-29 -16l-81 -31l-43 -11l-53 -10l35 -3l22 -17l4 -18q1 -5 1.5 -8.5t0.5 -7.5l1 -351l-6 -37l-11 -22l-27 -9h-21v-33h300z" />
    <glyph glyph-name="two" unicode="2" horiz-adv-x="534" 
d="M513 2v216q-20 -30 -26 -36q-12 -12 -37 -19l-188 1l67 38l68 46l55 50l25 30l18 28l11 33l6 31l-8 42l-13 43l-23 25l-27 24l-41 17l-39 12l-43 6l-50 1l-86 -9l-83 -23l-28 -20l-22 -21q-4 -8 -5.5 -13.5t-2.5 -9.5l-1 -21l8 -16l12 -14l13 -3l13 -2q5 1 10.5 1.5
t11.5 0.5l34 19l34 27l22 21l26 20l23 6q12 3 32 3q21 -13 23 -15l21 -23q20 -51 20 -96l-5 -37l-11 -39l-22 -41l-21 -32l-30 -30l-33 -30l-47 -30l-43 -22q-48 -19 -56 -20l-55 -13v-106h493z" />
    <glyph glyph-name="three" unicode="3" horiz-adv-x="452" 
d="M433 455l-10 40l-11 29l-24 21l-26 20l-39 14l-36 10l-84 3l-71 -10l-34 -12l-26 -12l-34 -34q-7 -10 -11.5 -17.5t-8.5 -13.5v-9l1 -21l8 -19l18 -14l25 -6l24 10l25 21l19 34l26 28l28 10l28 1l23 -14l22 -22l8 -29q1 -4 1.5 -9t0.5 -13v-25l-15 -41l-20 -41l-36 -42
l-34 -38l-37 -30l-37 -28h15l35 -2l39 -7l27 -17l23 -20l15 -31q4 -10 6.5 -18t4.5 -15l-2 -44l-5 -40l-14 -40l-18 -45l-29 -51l-31 -51l35 15l35 16l31 22l35 26l29 29l26 31l41 67l12 36l8 37l-1 38l-4 36l-15 34l-20 36l-32 31l-39 31l36 17l31 19l24 26l20 28
q4 8 6 14.5t4 11.5q0 3 1 4z" />
    <glyph glyph-name="four" unicode="4" horiz-adv-x="599" 
d="M580 118v189h-130l-1 461l-23 -23l-28 -20l-89 -38l-85 -24q15 -6 27 -15l19 -36l6 -45l1 -260h-157l58 177h-44l-117 -305h260v-83q-16 -35 -22 -41q-13 -13 -41 -20v-36h302l2 37l-29 1l-22 6l-12 20q-1 1 -1 6l-4 27v83l58 1l18 -3l18 -5l18 -21z" />
    <glyph glyph-name="five" unicode="5" horiz-adv-x="423" 
d="M404 147l-5 47l-8 45l-17 34l-16 29l-26 26l-26 19l-31 12q-5 3 -34 11l-66 1l-40 -9l-33 -9l-2 176l47 -2l48 -8l24 -11l18 -11l11 -13l12 -10l14 -8l22 -3l29 2l24 6l21 15l15 21l2 23l-6 44q-16 -7 -25 -10t-13 -4l-27 -3l-35 1q-16 3 -28 5t-20 3l-73 9l-98 -1v-344
q17 2 29.5 3.5t21.5 1.5h37l31 -12l29 -15q7 -7 17 -25l14 -26l4 -26q1 -7 1.5 -11t0.5 -6v-24l-9 -38l-12 -36l-22 -37l-24 -38l-33 -34l-36 -35l-45 -29l-47 -26l60 7l62 13l49 19l42 19l43 30l34 28l27 32l27 36l17 34l13 35l6 36q2 15 3.5 25.5t1.5 15.5z" />
    <glyph glyph-name="six" unicode="6" horiz-adv-x="559" 
d="M540 275l-7 51l-11 44l-22 34l-24 31q-24 16 -29 18l-36 15l-31 5q-6 1 -10.5 1.5t-7.5 0.5h-21l-37 -9l-31 -8l-27 -19l-25 -21q-13 -19 -16 -28l-10 -30l1 -29l9 -45l14 28l22 27l29 15q11 4 21 6.5l18 4.5l34 -1l34 -7l33 -21l27 -22l15 -41q2 -14 3 -24t2 -16l-6 -39
l-9 -31q-17 -26 -24 -30l-16 -13l-30 -13l-25 -6l-36 1l-33 8l-34 18l-24 18l-22 26l-22 37q-10 24 -11 37l-7 54l1 46l4 46l9 40l11 40l21 45l21 38l34 43l28 31l76 61l55 32l51 28l-54 -6l-62 -10l-52 -17l-43 -16l-77 -49l-27 -25l-34 -34l-18 -23l-29 -45l-16 -34
l-15 -41l-16 -61l-5 -39q-1 -8 -1.5 -17t-0.5 -20v-39l4 -35l16 -68l16 -34l12 -24l21 -29l17 -19l31 -24l57 -24l36 -11l27 -5l38 -1h11l37 6l35 9l34 18l36 22l23 24l25 32l16 31l16 42l7 38z" />
    <glyph glyph-name="seven" unicode="7" horiz-adv-x="503" 
d="M485 591l-99 12l-89 -4l-77 -11l-74 -14l-25 -6l-27 -1l-21 2l-20 6l-14 11l-13 16l-6 -44v-31l6 -31l11 -27l16 -20l19 -17l19 -9q6 -3 22 -3l21 3l21 10l36 34l44 37l35 17l40 16l59 12q15 3 61 3l-49 -69l-54 -88l-42 -79l-46 -93l-36 -78l-31 -78l-30 -79l-12 -31
l-26 -94q-7 -24 -7 -40l33 10l31 11l81 34q9 6 23 9q5 1 15.5 3t27.5 5l-4 101l3 34l8 58l18 90l26 86l96 245z" />
    <glyph glyph-name="eight" unicode="8" horiz-adv-x="571" 
d="M551 195l1 39l-3 39l-13 35l-18 38l-27 32l-33 30l-41 22l-47 20l35 22l29 27l18 35l13 35v22l1 22v12l-1 16l-14 28q-2 4 -6.5 10.5t-11.5 14.5l-44 27q-14 8 -24 13t-16 7l-28 4l-20 -1l-29 -10l-16 -3l-13 1l-25 16l-18 18v-15l2 -33l9 -34l20 -19l26 -13l27 -6l28 -3
l28 -7l25 -8q14 -14 18 -20q3 -5 9 -25l-1 -29l-8 -24l-18 -21l-21 -18l-41 -20l-42 22l-36 24l-25 29l-21 34q-10 23 -10 33l-1 33l9 30l17 28l-38 -12l-37 -19l-24 -23l-19 -24l-15 -40l-4 -26l1 -31l9 -38l16 -30l20 -29l32 -29l34 -20l-48 -24l-37 -23l-30 -33l-19 -31
l-11 -38l-5 -33l6 -41l12 -37l20 -30l29 -32l34 -23l44 -21l36 -11q21 -6 57 -5l62 2l63 14l45 20l40 22l30 29l27 34q8 19 15 37.5t12 35.5zM432 194l-5 -20l-11 -20l-19 -15l-29 -14l-33 -8l-46 -4l-43 7q-8 2 -41 18l-26 25l-19 33q-7 18 -7 33l-1 33l10 34l14 28l27 19
q4 2 11.5 5t20.5 6l83 -25l35 -21l26 -18l23 -24l16 -21l10 -27z" />
    <glyph glyph-name="nine" unicode="9" horiz-adv-x="569" 
d="M550 227q0 19 -3 54l-3 34l-14 49l-11 34l-23 42l-19 29l-34 34l-27 23l-44 23l-36 15l-48 7l-49 6l-48 -8l-33 -10l-36 -22l-34 -28l-28 -37l-23 -39l-12 -45l-6 -49l7 -63l11 -47l22 -45l25 -33l33 -27l32 -17l39 -10q10 -2 22 -2h18l30 8l35 16l24 23l24 34
q12 35 15 50l7 38l-4 -1l-40 -25l-31 -15l-28 -5q-5 -1 -9.5 -1.5t-8.5 -0.5h-25l-30 8l-28 11l-29 26l-15 18l-10 27l-3 35l4 42l6 21l19 26l19 18l29 14l26 9h28l18 -1l24 -3q22 -8 26 -12l33 -20l22 -27q18 -26 23 -37l12 -41l11 -55l-2 -52l-7 -60l-24 -90l-26 -54
l-18 -30l-35 -44l-26 -31l-73 -55q-19 -10 -31.5 -16t-19.5 -10l-46 -22l58 4l62 9l56 19l48 18l37 23q13 8 24.5 16.5t22.5 16.5l29 30l35 42q8 8 13.5 16t9.5 16l25 46l13 40q3 8 5 14t3 8l6 27z" />
    <glyph glyph-name="colon" unicode=":" horiz-adv-x="235" 
d="M215 497l-8 33l-16 31l-32 19q-14 5 -24.5 7.5t-17.5 3.5l-35 -10q-7 -2 -16.5 -7t-20.5 -13l-15 -24q-5 -8 -10 -40l8 -35l17 -31q24 -18 31 -19l40 -11l42 10q17 7 33 20q16 22 17 30zM215 101l-8 35l-16 34q-24 18 -34 21q-16 5 -26 7.5t-15 3.5l-40 -11l-31 -19
l-18 -34l-7 -35l7 -36l18 -32l27 -18q13 -8 45 -14l41 10q17 7 33 20l17 33z" />
    <glyph glyph-name="semicolon" unicode=";" horiz-adv-x="254" 
d="M214 497l-8 33l-16 31l-32 19q-14 5 -24.5 7.5t-17.5 3.5l-35 -10q-7 -2 -16.5 -7t-20.5 -13l-15 -24q-5 -8 -10 -40l8 -35l17 -31q24 -18 31 -19l40 -11l42 10q17 7 33 20q16 22 17 30zM235 41l-2 37l-9 46l-16 31l-22 25l-37 16l-34 6l-39 -8q-21 -8 -32 -15l-18 -26
l-7 -26l7 -28l18 -26q23 -15 31 -17l41 -8q10 -16 10 -22l4 -21l-6 -23l-10 -26l-39 -51l-50 -38l57 11l58 20l34 30l31 31l18 42z" />
    <glyph glyph-name="less" unicode="&#x3c;" horiz-adv-x="569" 
d="M39 387v-120l487 -180v129l-313 111l313 111v129z" />
    <glyph glyph-name="equal" unicode="=" horiz-adv-x="599" 
d="M581 362v56h-560v-56h560zM581 196v56h-560v-56h560z" />
    <glyph glyph-name="greater" unicode="&#x3e;" horiz-adv-x="569" 
d="M535 267v120l-487 180v-129l313 -111l-313 -111v-129z" />
    <glyph glyph-name="question" unicode="?" horiz-adv-x="602" 
d="M583 565l-4 42l-6 30l-20 35l-19 26l-25 19l-26 16l-38 12l-37 10l-71 4l-73 -6l-80 -17l-61 -22l-54 -31l-27 -27q-20 -33 -24 -67l9 -24l16 -21l23 -10l26 -6l29 5l27 11q28 31 38 61l9 25l20 28l19 12q10 6 19 11t19 9q7 1 14.5 1.5t15.5 0.5h30l30 -17q4 -2 10 -8
l14 -14q14 -33 16 -43l7 -48l-6 -53l-11 -44l-18 -26l-22 -23l-42 -31l-18 -22l-16 -29l-7 -47v-55l29 1l2 27l7 23l18 19l19 16q11 7 18.5 11t12.5 6l88 44l33 22l24 19l21 26l22 33l12 36q4 9 8 50zM384 98l-8 36l-16 34q-8 7 -16 11.5t-16 8.5q-12 4 -22.5 6.5t-19.5 4.5
l-40 -11l-31 -19q-16 -27 -17 -34l-7 -34l7 -36l17 -33l32 -20q4 -3 40 -11l40 10l33 20l7.5 12l2.5 4q5 12 8.5 24.5t5.5 26.5z" />
    <glyph glyph-name="at" unicode="@" horiz-adv-x="1153" 
d="M1133 162l-2 93l-18 96l-28 92l-21 44l-23 43l-60 81l-31 29l-45 39l-93 54l-53 19l-57 15l-62 12q-17 3 -64 3l-137 -15l-50 -15l-68 -23l-51 -29l-45 -28l-42 -36l-37 -37l-31 -42l-27 -43l-22 -47l-20 -46l-22 -100l-2 -41q-1 -20 -1.5 -28.5t-0.5 -3.5v-27l6 -54
l8 -45l13 -48l18 -47l21 -39l26 -42l31 -36l33 -36l38 -29l43 -28l46 -20l51 -17l55 -10q27 -5 57 -3l66 4q23 2 38.5 4t23.5 4l-56 15l-65 21l-51 25l-32 17l-47 35l-39 33l-56 65l-26 37q-10 14 -16 25.5t-10 20.5l-28 74l-11 42q-4 13 -4 52v22l5 70l8 30l11 39l17 35
l28 44l30 33l21 20l85 53l41 13l43 13l72 12q6 1 12 1.5t13 0.5h31l59 -4l52 -9l48 -17l46 -20l66 -47l34 -35l30 -36l25 -41l21 -41l17 -43l13 -43l13 -87l-3 -42l-4 -37l-11 -35l-8 -24l-20 -28l-20 -26l-29 -14l-30 -15l-29 12l-20 15l-9 26l-5 30l1 289l-6 23l-13 26
q-8 7 -14 11t-10 6l-21 14l-69 21l-82 9l-76 -5l-34 -6l-41 -10l-21 -6q-2 -2 -30 -5l-58 6l-21 11l-21 16l9 -50l17 -38l25 -25l29 -16l28 -2l36 4l34 23l23 21l12 15l19 18l27 10l29 7l26 -5l27 -11l15 -27q2 -4 4 -13t4 -23l1 -62l-102 2l-44 -7l-37 -7l-42 -16l-31 -14
l-27 -20l-29 -23l-18 -25l-14 -25q-4 -13 -5.5 -22.5t-2.5 -15.5l-3 -24l4 -22l6 -21l10 -16l16 -22l24 -15l25 -13l30 -7l40 -6q32 0 49 3l35 6l58 18l58 23l4 -46l12 -37l25 -36l34 -33l41 -19l49 -13l37 -9q2 -1 4 -1q3 0 5 -1h29l33 4l33 8l28 17q11 7 18 12t11 7l23 25
l23 28l19 33l15 35l25 76zM655 245l-1 -176l-57 -21l-43 -11q-33 0 -45 3l-23 8l-20 16l-16 22l-3 28l3 31l14 24l21 27l28 18q14 8 24 13t16 7l44 8q16 3 58 3z" />
    <glyph glyph-name="A" unicode="A" horiz-adv-x="852" 
d="M834 2v33l-40 18l-33 32l-218 594v13q0 10 0.5 16.5t3.5 12t8 11.5t14 15h-72l-79 -14l-70 -27l-28 -18l-20 -19l39 -5l9 -16l4 -22l-233 -540l-19 -19l-21 -17l-30 -10l-31 -5v-33h216l1 34l-39 4q-16 8 -24 19l2 17l11 26l16 44l297 127l60 -170q6 -18 5 -29l-1 -15
l-12 -12l-14 -7q-13 -2 -23.5 -3.5t-20.5 -1.5v-33h342zM445 399l-172 -75l108 250z" />
    <glyph glyph-name="B" unicode="B" horiz-adv-x="802" 
d="M782 156v33q0 2 -0.5 6t-1.5 11l-5 33q-9 26 -16 33l-22 36l-29 26l-39 26l-42 14l-55 12q31 8 47 15l44 22l22 24l23 31l5 26q3 16 3 31l-17 61l-17 26l-18 22l-24 28l-27 24l-33 16l-37 15l-81 15h-90l-94 -13l-94 -25l-87 -36l-78 -45l48 -1l22 -4l20 -7l11 -13l7 -20
l1 -475l-6 -36l-10 -23l-20 -7l-29 -2v-33l559 1l47 13l34 16l31 28l24 27l16 36zM525 569l-4 -50l-6 -29q-5 -9 -8.5 -16t-6.5 -12l-18 -22l-29 -15l-33 -10l-41 -6l-39 -1h-18l-1 170q5 29 9 35q12 18 33 32l-62 14l-71 4l-99 -17l58 21l69 20l44 6l50 3l50 -6l30 -6
l27 -14l26 -16l29 -38l8 -25zM580 219l-8 -50l-14 -41q-22 -30 -30 -38l-38 -29l-46 -17l-58 -8l-65 -1v327l80 6l36 -3l35 -4l54 -23q21 -19 22 -23l17 -23l10 -38z" />
    <glyph glyph-name="C" unicode="C" horiz-adv-x="794" 
d="M775 245l-50 -34l-58 -31l-48 -15l-47 -10h-15l-35 -1h-46l-41 8l-45 15l-34 16l-30 17l-31 24l-22 22l-25 36l-21 34l-20 45l-11 37l-8 37l-6 48q0 33 3 50l7 39l14 31l21 36q15 15 27 23l35 24q33 11 39 11l55 10l51 -10q11 -2 38 -15q8 -8 14 -15t11 -12l14 -17
l14 -24l18 -21q19 -12 28 -14l40 -6l29 4l25 6l19 15l16 18q8 24 8 29l5 28l-11 83l-3 -1l-14 -11l-17 -9l-21 -5q-10 -2 -16 -2h-12l-47 6l-39 19l-40 16l-44 8l-43 4l-46 -2l-36 -4l-38 -12l-33 -13l-46 -25l-42 -24l-35 -31l-30 -32l-23 -35l-19 -38l-15 -38l-12 -38
l-7 -38l-4 -38l1 -69l4 -32l5 -28l7 -21l9 -20l18 -37l20 -32l34 -40l33 -31l34 -26l36 -22l40 -21l53 -20l43 -11l43 -8h12l29 -1h44l51 9l44 14l75 42l34 32l39 47l24 47z" />
    <glyph glyph-name="D" unicode="D" horiz-adv-x="860" 
d="M840 310l-5 -43l-6 -45l-15 -39l-15 -33l-22 -29l-24 -24l-59 -40l-34 -15l-34 -13l-38 -10l-72 -13l-450 -4v33l29 2l20 7q10 16 12 23q1 3 2 12t3 24l-1 475l-7 18l-12 15l-14 4q-10 5 -31 7l-47 3l2 -2l28 27l44 39l40 23l43 20l46 13l30 7l41 4q31 3 54 3l97 -10
l58 -17l35 -11l86 -40l78 -54l53 -53l25 -36l22 -38l15 -39l11 -41l8 -54q0 -2 1 -4l3 -16v-36zM634 298l-3 41l-12 62l-13 58l-11 31q-4 11 -9 20l-21 45l-29 38q-21 28 -29 36l-34 26l-34 24l-36 13l-40 13l-38 3l-27 1h-13l-40 -8l-40 -12l-37 -19l-36 -24l78 15h77
l37 -6l41 -10q-23 -21 -29 -29q-7 -10 -12 -38v-543l71 9l68 17l47 21l47 28l28 30l23 33l16 40l9 40v24z" />
    <glyph glyph-name="E" unicode="E" horiz-adv-x="713" 
d="M692 212l-24 23l-23 -40l-20 -27l-30 -28l-37 -28l-34 -19l-44 -20l-52 -17l-46 -10l-55 -9q-6 -1 -13 -1.5t-15 -0.5h-22l2 251l31 33l32 27l28 11l27 5l20 -8l19 -13l9 -25l5 -31l131 129l-27 48l-22 20l-24 16l-29 7h-28l-31 -15l-31 -22l-112 -134l2 369l87 -8
l77 -18l41 -16l32 -15l37 -20l33 -22l47 -45l18 -30l15 -28l26 22l-47 222l-31 -9q-4 -1 -8.5 -1.5t-10.5 -0.5h-575l1 -31l35 -4l22 -17l4 -18q0 1 2 -7l1 -554l-6 -37l-10 -22q-7 -2 -12 -4t-9 -4l-28 -1v-33h560l33 -2l32 -7z" />
    <glyph glyph-name="F" unicode="F" horiz-adv-x="708" 
d="M692 523l-47 222l-31 -9q-4 -1 -8.5 -1.5t-10.5 -0.5h-575l1 -31l35 -4l22 -17l4 -18q0 1 2 -7l1 -554l-4 -128l-9 -56l-11 -51l-18 -38l-23 -36l323 209l-26 15q-8 4 -22 18l-12 29l-6 37l2 184l32 33l32 27l28 11l27 5l20 -8l18 -13l9 -25l5 -31l131 129l-26 51l-22 19
l-24 15l-19 6h-39l-31 -16l-31 -21l-112 -138l2 373l87 -8l77 -18l41 -16l32 -15l37 -20l33 -22l47 -45l18 -30l15 -28z" />
    <glyph glyph-name="G" unicode="G" horiz-adv-x="859" 
d="M841 408l-7 27l-60 -8h-39l-38 1l-56 8l-85 18l-77 19l-68 10l-32 -3l-28 -4l-26 -15l-23 -19l-17 -26l-22 -44l107 -71l7 41l15 37l17 17q9 9 34 21l26 2l31 -3l29 -19l23 -22l15 -41l7 -42l-2 -157q-1 0 -3.5 -0.5l-7.5 -1.5h-51l-29 1l-49 9l-33 10l-39 19l-36 22
l-33 29l-33 35l-21 26l-16 26l-13 35l-9 38l-5 44v39l4 48l9 45l17 44l16 31l23 28l31 28l32 14l45 15l58 -10l48 -17l32 -27l30 -30l25 -30l28 -28q21 -11 23 -12q22 -6 36.5 -9t22.5 -4l25 4l24 8l16 15l15 20l8 25l8 30l3 75l-38 -27l-26 -10l-27 -6l-25 5l-14 7t-11 5
l-75 39l-40 14l-42 11l-43 3q-14 1 -20 1.5t-3 0.5h-23l-46 -9l-46 -11l-55 -23l-43 -22l-43 -32l-32 -29l-30 -37l-24 -35l-20 -44l-16 -46q-7 -27 -7 -42q-2 -15 -3 -25.5t-2 -16.5l2 -45l5 -38l7 -24.5t5 -18.5l12 -33l40 -68l29 -38l25 -26l25 -24l27 -19l31 -20l39 -18
l31 -10l36 -7l72 -6l54 2l35 6l46 11l48 13l50 19l64 26l107 54l-36 3q-21 11 -27 17l-5 18l-3 29l-1 121l4 27l7 20l17 12l19 11z" />
    <glyph glyph-name="H" unicode="H" horiz-adv-x="813" 
d="M794 36q-21 0 -34 3q-13 7 -22 17l-7 624l7 19l10 19l20 24l26 26l-98 -11l-43 -8l-40 -8l-38 -13l-35 -13l-67 -35l39 -24l15 -27q2 -4 4 -13.5t4 -25.5v-134h-258l1 224l20 37l47 51l-90 -10l-85 -15l-78 -25l-37 -19l-32 -19l29 -13l23 -26l6 -32q1 -5 1.5 -10t0.5 -9
l1 -487l-6 -37l-10 -22q-7 -2 -12 -4l-10 -4l-27 -1v-33h322l1 34h-18l-17 3q-13 7 -22 17l-5 18l-3 28v258h258l1 -255l-6 -38l-10 -23l-27 -9h-21v-33h321z" />
    <glyph glyph-name="I" unicode="I" horiz-adv-x="361" 
d="M342 36l-36 3q-13 7 -22 17l-6 580l5 36l11 22q11 7 21 7l26 1v32h-322l1 -31l35 -4l22 -17l4 -18q0 1 2 -7l1 -554l-6 -37l-10 -22q-7 -2 -12 -4t-9 -4l-28 -1v-33h322z" />
    <glyph glyph-name="J" unicode="J" horiz-adv-x="477" 
d="M459 747l-91 -12l-85 -17l-79 -26l-36 -17l-34 -17l35 -4l22 -17l6 -684l-13 -28q-17 -9 -34 -11l-18 7l-19 13l-19 14q-3 3 -20 8l-17 -1q-7 0 -23 -9l-11 -19l-6 -27l8 -27l16 -27l36 -18l18 -6l28 -5l61 7l57 20l59 38l24 28l24 29l16 32q3 2 14 34l11 50
q1 5 1.5 10.5t0.5 13.5v600q16 27 24 35t44 33z" />
    <glyph glyph-name="K" unicode="K" horiz-adv-x="813" 
d="M794 39l-35 1l-22 17l-6 19l-1 27l-8 46l-22 53l-37 54l-30 28l-32 27q-11 7 -19.5 12t-13.5 8l-41 22q-17 7 -27.5 10t-15.5 4l-50 14l-49 8q-18 3 -63 3l19 47l21 45l24 35l27 32l29 20l31 17l25 3h43l15 -6q4 -1 6.5 -1.5t4.5 -0.5l19 -1h20l31 12l31 19l23 29l17 32
l5 38l-1 16l-4 24l-37 -17l-29 -7l-22 3l-26 6l-40 7l-37 -8l-45 -15l-32 -27l-30 -27l-28 -37l-24 -37l-24 -45l-20 -45l-38 -110l2 245l5 36l11 22q11 7 21 7l26 1v33h-322l1 -32l35 -3q13 -7 22 -18l4 -18q0 1 2 -7l1 -554l-8 -40l-8 -18l-24 -9l-25 -1v-35h322l1 37
l-36 1l-22 17l-5 18l-3 27l2 245l47 -6l41 -13l30 -17l30 -25l25 -29l21 -31l16 -31l12 -29l7 -21l4 -22l3 -14l-7 -37l-10 -22q-7 -2 -12 -4t-9 -4l-27 -1v-39h344z" />
    <glyph glyph-name="L" unicode="L" horiz-adv-x="685" 
d="M668 218l-23 23l-16 -42l-16 -28l-26 -29l-34 -29l-37 -21l-39 -19q-11 -5 -23.5 -9t-27.5 -8l-45 -10l-55 -9q-6 -1 -13 -1.5t-15 -0.5h-22l2 601l5 36l11 22q11 7 21 7l26 1v32h-322l1 -31l35 -4l22 -17l4 -18q0 1 2 -7l1 -554l-6 -37l-10 -22q-7 -2 -12 -4t-9 -4
l-28 -1v-33h536q20 0 35 -5q8 -5 15.5 -10t15.5 -10z" />
    <glyph glyph-name="M" unicode="M" horiz-adv-x="900" 
d="M881 36l-18 1l-18 2q-13 7 -22 17l-7 580l5 35l11 21l25 5l23 1v39h-259v-80l-152 -250l-189 269l-3 31q0 13 12 40l-76 -2l-50 -15l-48 -19l-40 -31l-33 -39q30 -15 37 -22q20 -29 27 -44l-2 -159l-4 -123l-4 -94l-6 -67l-10 -51l-11 -26l-14 -14l-17 -5l-19 -1v-33h216
l1 34h-15l-16 3l-11 5l-10 11l-9 20l-4 10l-9 53l-8 120l-4 304l227 -383l244 399l1 -475l-6 -37l-10 -22l-23 -8l-26 -1v-33h323z" />
    <glyph glyph-name="N" unicode="N" horiz-adv-x="747" 
d="M728 163q-40 14 -50 21l-34 35v159l2 120l6 86l9 58l12 34l14 19l19 7h22v38h-217l2 -37l17 -1l15 -3l10 -5l12 -13l9 -21l8 -31l6 -45l3 -60l4 -63l1 -209l-317 421q-8 17 -13 28t-7 17l-6 46l-75 -8l-72 -22l-29 -18l-29 -21l-18 -27l-14 -27q40 -13 50 -19
q16 -10 37 -37l-1 -162l-2 -125l-5 -96l-7 -69l-10 -52l-12 -26l-14 -14l-16 -5l-20 -1v-33h216l1 34h-15l-16 3l-11 5l-10 11l-9 20l-7 27l-6 37l-8 122l-4 307l390 -550l21 -31q3 -4 17 -48l13 41l17 34l26 40l31 42z" />
    <glyph glyph-name="O" unicode="O" horiz-adv-x="806" 
d="M787 381l-3 81l-9 47l-9 31l-43 87l-22 27l-30 33l-31 23l-38 23q-28 11 -29 11l-74 21l-104 3l-57 -20l-48 -23q-14 -14 -22 -22.5t-10 -11.5l-24 -37l-6 -37v-48l14 -35q4 -11 27 -40q17 -16 30 -20l33 -13l30 -3l33 4l25 13l22 17l-26 -2l-31 7l-14 17l-5 22l11 27
l15 19l31 15q14 5 24.5 7.5t16.5 3.5h38l33 -1l36 -4q21 -8 32.5 -13t13.5 -7l33 -18q20 -20 29 -33l21 -29l14 -43l9 -35l-1 -47l-6 -47l-12 -37l-20 -40l-24 -31l-33 -34q-21 -16 -34 -20l-45 -20l-42 -7h-58l-58 16l-43 18l-46 27l-33 27l-26 29l-28 41l-16 38l-18 57
l-7 47v50l4 52l11 51l15 51l22 56l-46 -28l-38 -28l-30 -29l-33 -40l-20 -34l-20 -43l-10 -36l-9 -46v-29l1 -27v-28l6 -36l12 -45l28 -62l25 -39l23 -29l29 -28l34 -30l43 -25l36 -15l50 -14l39 -7h54l49 1l48 11l65 19l42 19l29 18l35 30l34 37l19 27l24 41l29 76l9 49z
" />
    <glyph glyph-name="P" unicode="P" horiz-adv-x="743" 
d="M726 469v35l-5 48q-14 35 -22 49l-21 37l-26 26l-25 23l-36 21l-30 14l-75 22l-83 9l-49 -2q-5 -1 -9 -1t-7 -1h-33l-82 -16l-80 -27l-69 -37l-31 -23l-25 -21l43 -2l22 -5l23 -7l12 -18q4 -5 7 -25l1 -465l-6 -37l-10 -22l-23 -8l-26 -1v-33h322l1 34l-36 3
q-13 7 -22 17l-6 19l-1 499l10 38q7 14 33 34l-63 13l-41 5h-30l-46 -7l-53 -11l46 22l53 21l42 9l42 5l44 -2l40 -6l34 -13l35 -17l48 -43l20 -31l12 -27q6 -36 6 -53v-22l-10 -30l-16 -27l-27 -22l-18 -12l-34 -10l-32 -6l-41 3l-36 7l38 -39l40 -28l40 -16q5 -2 15.5 -4
t27.5 -6l38 1l41 6l36 16l34 18l27 28l25 29l16 35q4 7 6 15q2 6 3 11.5t2 10.5z" />
    <glyph glyph-name="Q" unicode="Q" horiz-adv-x="875" 
d="M857 192l-33 -6l-27 -1h-11l-31 5l-28 10l18 36l15 35l17 83l1 40q1 5 1 9t1 7v32l-10 56l-7 31l-17 47l-23 46l-24 32l-32 36l-32 24l-45 27l-37 12q-7 3 -22 6.5t-39 7.5h-12l-30 -1h-79l-52 -18l-44 -22q-28 -25 -33 -34l-24 -38q-9 -32 -9 -46v-13l2 -22l14 -40
l19 -33l27 -22q7 -7 32 -15l34 -3h15l19 1l33 13l31 20l-35 9l-21 20l-3 29q0 13 9 40q20 21 27 25q8 4 35 12l50 -2l36 -4l40 -14l30 -12l30 -23l22 -22l19 -33q4 -5 6 -9l11 -25l5 -31q7 -9 5 -41l-3 -41l-6 -41l-13 -39l-19 -46l-66 25l-75 17h-58l-28 -2l-49 -15
l-46 -19l16 -25l56 15q10 2 21.5 3.5t25.5 1.5l40 -9l34 -12l43 -35l-42 -18l-2 -1l-15 -6l-22 -7l-35 -4h-53l-37 8l-30 10l-33 18l-37 27l-25 25l-23 30l-20 30l-17 37l-15 48l-9 41l-6 83l6 46l10 55l17 43l18 42l-43 -21l-31 -19l-35 -35l-28 -36q-5 -7 -9 -14.5
t-8 -16.5l-16 -42l-12 -47l-3 -35l4 -101l12 -50l11 -33l20 -46l18 -32l37 -49l30 -32l27 -22l44 -28l48 -21l38 -10l48 -6l36 -1h36l50 8l67 17l31 16l32 19l53 46l36 -37l32 -39l22 9l21 11l42 39l17 24l15 26l7 26z" />
    <glyph glyph-name="R" unicode="R" horiz-adv-x="841" 
d="M822 131l-37 -17q1 0 -7 -2h-22l-22 9l-19 18l-18 28l-46 97l-18 29l-20 26l-27 19q-7 5 -15.5 9t-19.5 8l45 7l47 16l31 20l32 27l18 28l14 30l5 25v46l-13 40l-16 36l-20 25l-18 18l-32 19l-28 15l-76 25l-88 15l-107 2l-95 -11l-90 -24l-39 -17l-40 -21l-26 -19
l-37 -32l43 -2l22 -5l23 -7l12 -18q4 -5 7 -25l1 -465l-6 -37l-10 -22l-23 -8l-26 -1v-33h322l1 34l-36 3q-13 7 -22 17l-6 19l-1 499l10 38q7 14 33 34l-63 13l-41 5h-30l-46 -7l-53 -11l45 23l56 23l48 12l38 7l51 -2l35 -4l34 -13l36 -19l25 -26q5 -5 10.5 -12t12.5 -15
q5 -11 9.5 -21.5t7.5 -20.5q5 -11 11 -42l-7 -48l-12 -41l-26 -34q-5 -6 -33 -27l-44 -12l-54 -6l1 -15l39 -5l33 -10l19 -23l16 -24l11 -32l9 -35l23 -77l15 -53l22 -50l23 -29l28 -21l33 -13q7 -4 30 -4l30 7l34 14l24 19l25 27l21 44q4 6 14 43z" />
    <glyph glyph-name="S" unicode="S" horiz-adv-x="740" 
d="M721 254l-11 71l-17 35l-22 40l-27 27l-30 25l-41 20q-23 8 -36.5 13t-18.5 7l-49 7q-11 2 -18.5 2.5t-11.5 1.5h-25l-53 7l-51 14l-29 22l-24 29l-9 27l-1 28l9 28q2 8 15 23l23 13q7 4 35 9l57 -2l54 -7l28 -14l28 -17l29 -36l15 -18l17 -16l30 -12l31 -1l27 5l22 10
l21 29l11 25l8 40q5 8 5 54l-36 -24l-26 -10l-28 -6l-31 3l-34 13l-36 15l-38 14l-87 16h-91l-89 -17l-38 -17l-30 -19l-30 -30l-21 -27l-16 -37q-2 -4 -4 -12t-4 -20v-24l2 -27l6 -30l17 -32l30 -35l36 -27l55 -26q28 -8 48 -13t33 -7l58 -9l47 -8l44 -15l30 -24l27 -25
l20 -37q2 -4 4.5 -12t6.5 -22v-21l-2 -24l-6 -28l-20 -30l-23 -25l-39 -18q-19 -5 -32 -8.5t-21 -5.5l-58 10l-35 11l-36 22l-31 28l-25 40l-15 31l-10 42q-2 10 -2 44l-39 -26l-35 -27l-29 -34l-25 -36l-18 -40q-2 -5 -5 -15t-8 -24q-1 -8 -2 -14t-2 -11v-50l38 21l48 18
l38 -1l36 -4l91 -20l64 -11q16 -3 64 -3h12q40 0 60 3l45 7l63 26l32 16l30 25l28 28l21 33l20 43l8 35z" />
    <glyph glyph-name="T" unicode="T" horiz-adv-x="788" 
d="M770 745l-42 -8l-624 -3l-42 3l-44 8l53 -266l5 45l11 44l21 37l24 34l26 20l44 27q2 1 5 2t7 2q3 1 5 1.5t5 1.5t8 1.5l15 1.5q9 4 49 7l-1 -601l-2 -24l-5 -22q-11 -13 -22 -17l-33 -3l-1 -34h322v33l-27 2l-21 7l-13 25q-2 10 -2 34l-2 599q30 0 53 -5l46 -11l36 -22
l35 -25l23 -35q6 -10 11 -19t9 -17l10 -42l7 -45z" />
    <glyph glyph-name="U" unicode="U" horiz-adv-x="708" 
d="M689 431l-1 73l-5 57l-8 52l-13 52l-15 34l-19 26l-20 9l-115 -86l17 -11l21 -16l16 -18l16 -21l17 -31l13 -30l19 -77l3 -87l-13 -109l-16 -39l-24 -36q-14 -11 -21.5 -16.5t-9.5 -6.5q-11 -8 -31 -16l-42 -10l-37 -1l-38 7l-37 13l-27 19l-23 26l-15 40q-3 13 -3 40
l-1 398q16 33 24 43q9 10 39 24v38l-321 -105v-33l24 -1l24 -5q8 -12 10 -20l6 -29l-1 -356l9 -52l12 -38l24 -37l24 -29l36 -24l33 -18l45 -13q8 -4 37 -7h40l26 1l34 3l39 9l47 16l35 18l43 29l17 17t18 20l24 29l19 36l19 50l12 61l10 75z" />
    <glyph glyph-name="V" unicode="V" horiz-adv-x="806" 
d="M788 631l-7 50l-15 33l-24 30l-24 20l-149 -129l23 -7l19 -7l16 -15l14 -14l10 -24l6 -22l-1 -36l-4 -36l-11 -39l-17 -49l-52 -110l-43 -73l-39 -61l-212 499q-8 17 -3 26q8 7 26 10l41 3l-1 32h-324v-33q31 -6 42 -12q10 -6 30 -32l233 -578q-9 -27 -15 -35t-29 -20
h101l53 7l53 9l46 16l45 22q-35 12 -43 17l-33 35l48 58l47 58l48 67l34 52l51 87l18 39l20 47l17 64z" />
    <glyph glyph-name="W" unicode="W" horiz-adv-x="1259" 
d="M1240 608l-6 53l-17 44l-23 36l-26 30l-160 -102l25 -8l19 -9l21 -17l16 -17l14 -26l10 -25l4 -31v-48l-9 -41l-16 -50l-22 -50l-33 -64l-40 -61l-54 -74l-210 502l4 19l10 13l55 5l-1 34h-324v-35q30 -7 41 -15q9 -6 32 -34l85 -207v-30q-1 -7 -1.5 -12t-0.5 -7l-1 -18
l-12 -34l-16 -34l-24 -37l-24 -34l-66 -76l-215 502l6 19l15 13l48 5l-1 34h-325v-35q30 -7 40 -14l34 -35l233 -574l-22 -42l-28 -28l80 5l79 7l41 10l34 11l34 18l33 20l-20 1l-15 4l-13 5l-9 7l-7 7l-3 6l-1 3l1 3l69 70l31 41l30 42l21 43l20 47l92 -286
q-17 -34 -19 -36l-22 -19l104 2l48 6l53 9l46 15l49 22l-32 4l-24 6l-13 19l-1 26l62 74l45 57l78 114l31 53l21 43l30 80l8 40z" />
    <glyph glyph-name="X" unicode="X" horiz-adv-x="884" 
d="M865 2v33q-32 16 -42 24q-5 4 -13.5 13.5t-19.5 23.5l-287 350l296 318l-128 -5l-158 -12l25 -25l3 -36l-12 -45l-28 -61l-41 -73l-118 156q-16 31 -16 44q0 11 9 40l-94 -15l-53 -17l-50 -19l-38 -25l-35 -30q15 -5 25.5 -9t15.5 -8l31 -28l210 -243l-119 -152l-83 -93
l-30 -27l-23 -20l-23 -13l-18 -8q-25 -5 -33 -5v-33h280l2 34l-29 4q-13 6 -19 12l-8 22l8 38l25 46l43 60l64 73l115 -138l14 -25l11 -25l4 -28v-7l-1 -12q-13 -16 -35 -21v-33h373z" />
    <glyph glyph-name="Y" unicode="Y" horiz-adv-x="788" 
d="M771 747l-70 -5l-50 -9l-42 -9l-45 -16l-43 -17q10 -10 18 -25l1 -16v-28l-12 -52l-29 -64l-44 -66l-160 229l-11 19l-7 24l4 22l12 18l-70 -1l-80 -13l-72 -23l-29 -15l-24 -17l23 -8l24 -14q7 -7 11.5 -13t8.5 -11q4 -4 8.5 -10.5t11.5 -16.5l173 -264l1 -243l-5 -37
l-9 -22l-20 -8l-26 -1v-33h322l2 34l-24 1l-20 7q-5 8 -7 14t-3 8l-6 36v277z" />
    <glyph glyph-name="Z" unicode="Z" horiz-adv-x="740" 
d="M721 230l-14 16l-23 -32l-20 -21q-17 -7 -39 -7l-367 -1l441 578l-47 -23l-31 -6h-453l-23 8l-21 21l-80 -256h16l38 33q5 3 12 6t17 5h344l-452 -562l36 11l502 2q24 0 39 -4l28 -9z" />
    <glyph glyph-name="bracketleft" unicode="[" horiz-adv-x="206" 
d="M191 870h-171v-1040h170v55h-117v929h117z" />
    <glyph glyph-name="backslash" unicode="\" horiz-adv-x="445" 
d="M104 590l1 -487l-6 -37l-10 -22l-27 -9h-21v-33h299l1 34l-36 3q-13 7 -22 17l-5 18l-1 456l-5 35l-7 28l-24 34l-8 17l-6 25l3 21q3 8 12 17l22 6l19 1l12 -12l5 -5q2 -2 5 -9.5t8 -18.5l11 -26l15 -18l21 -10l20 -1l19 7l18 10l8 15q2 8 2 12v11l-17 35l-17 23l-24 13
l-35 16l-31 4h-47l-37 -9l-39 -17l-28 -25l-24 -28l-15 -41q-4 -12 -9 -50z" />
    <glyph glyph-name="bracketright" unicode="]" horiz-adv-x="208" 
d="M188 -171v1041h-171l-2 -56h117v-929h-117l2 -56h171z" />
    <glyph glyph-name="asciicircum" unicode="^" horiz-adv-x="297" 
d="M279 618l-98 133h-66l-97 -133l127 66z" />
    <glyph glyph-name="underscore" unicode="_" horiz-adv-x="708" 
d="M688 -123v55h-668v-55h668z" />
    <glyph glyph-name="grave" unicode="`" 
d="M302 578l-45 173h-172z" />
    <glyph glyph-name="a" unicode="a" horiz-adv-x="609" 
d="M591 3l-27 15l-22 22l-12 30l-5 32l1 245q0 21 -3 35l-10 42l-20 24l-23 25q-14 8 -23 12.5l-13 6.5l-34 13q-27 7 -43 7l-41 5l-79 -5l-44 -11l-33 -10q-21 -7 -31 -7l-32 -1l-32 9l-28 15l6 -47l13 -42l21 -25l25 -17l28 -3l28 3l27 19l26 25l12 15l19 18l26 10l29 6
l27 -4l26 -11l15 -27q2 -4 4 -13t4 -23l1 -63l-102 2l-44 -7l-37 -7l-42 -16l-31 -14l-28 -20l-28 -24l-17 -25l-15 -24q-4 -13 -5.5 -22.5t-2.5 -15.5l-3 -24l4 -22l6 -21l27 -38l24 -18l25 -13l33 -9q28 -5 37 -5l40 2l43 7l58 20l57 23q15 -28 27 -37q7 -6 42 -18z
M374 280l-1 -176l-49 -15l-36 -4l-35 5l-27 10l-20 16l-16 22l-6 23v30l13 27l15 20l25 16l37 17l64 9h36z" />
    <glyph glyph-name="b" unicode="b" horiz-adv-x="616" 
d="M599 308l-11 40l-15 38l-25 33l-28 32l-39 22l-43 17l-183 -99l1 373l-71 -14l-88 -26l-39 -19l-38 -25l34 -4q13 -6 22 -18l6 -19l2 -536l-6 -37l-11 -22l-27 -9h-21v-33l348 1l45 6l44 14l35 23l34 26l29 38l19 32l14 40l11 42v41l1 29v14zM448 234l-3 -42l-6 -36
l-15 -35l-19 -31l-28 -21l-33 -15l-45 1l-43 9l-1 282q34 21 79 36l31 -6l29 -13l17 -22l21 -33l10 -36z" />
    <glyph glyph-name="c" unicode="c" horiz-adv-x="543" 
d="M525 192q-13 -8 -24 -14.5t-21 -11.5l-47 -24l-39 -11l-37 -6h-36l-37 6l-30 13l-30 15l-23 20l-20 22l-19 35l-11 25l-10 43q-1 5 -1.5 14.5t-0.5 24.5l5 32l10 31l18 21l25 20l34 12q7 2 40 8l53 -11l41 -23q8 -17 13 -28t6 -16q3 -9 3 -45l31 18l27 22l20 32l17 37
q1 9 1.5 14t0.5 7v30l-1 28l-26 -18l-26 -11h-24l-30 3l-63 11h-11l-28 -1h-41l-52 -13l-35 -13l-37 -26l-28 -25l-25 -37l-17 -31l-13 -42l-8 -36v-27l1 -33l2 -32l10 -34l17 -42l25 -36l23 -26l29 -22l42 -22q13 -4 23 -6.5t18 -3.5l53 -6l51 4l42 9l37 17l40 22l30 27
l28 33l19 38z" />
    <glyph glyph-name="d" unicode="d" horiz-adv-x="633" 
d="M614 36l-36 3l-12 6l-9 11l-7 708l-71 -14l-88 -26l-39 -19l-38 -25l34 -4l22 -17l6 -20l2 -158q-19 8 -34 12l-21 6q-25 4 -44 6l-49 -8l-38 -11l-42 -25l-32 -24l-27 -32q-36 -42 -51 -90l-16 -50l-6 -30q-1 -3 -1 -26v-32l8 -37l15 -43l22 -31l32 -31q26 -14 36 -17
l55 -16l192 100v-100h236zM378 436l-1 -290l-49 -25q-12 -6 -36 -12l-36 1l-25 6l-23 19l-14 20l-10 31l-6 29v13l1 24l6 43l9 31l16 37l23 31l19 22q18 13 28 17l28 11h17l23 -3z" />
    <glyph glyph-name="e" unicode="e" horiz-adv-x="592" 
d="M574 186l-29 16l-49 -27l-48 -25l-42 -15l-46 -10h-69l-34 8l-25 10l-22 17l-16 20l89 36l84 44l69 43l33 25l24 21l23 22l16 20l-28 35l-26 27l-34 19l-39 19l-44 11l-38 6h-16l-32 -1l-36 -3l-47 -14l-43 -16l-31 -19l-34 -28l-23 -29l-22 -39l-11 -36l-9 -50
q0 -33 3 -45l14 -58l23 -45l23 -39l30 -30l34 -24l38 -15q5 -2 11 -4t11 -3q22 -5 27 -6h45l28 1l43 9l40 12l38 17l38 22l34 26l30 28l22 30zM368 362l-9 -19l-13 -19l-20 -19l-22 -18l-32 -19l-32 -15l-74 -23l-14 38l-11 38v68l7 26l10 25l12 15l15 13l42 6l15 -1h18
l35 -15l31 -16l32 -33l8 -12q2 -8 2 -20z" />
    <glyph glyph-name="f" unicode="f" horiz-adv-x="445" 
d="M427 669l-17 35l-17 23l-24 13l-35 16l-31 4h-47l-37 -9l-39 -17l-28 -25l-24 -28l-15 -41q-4 -12 -9 -50v-61h-86v-67h86l1 -359l-6 -37l-10 -22l-27 -9h-21v-33h299l1 34l-36 3q-13 7 -22 17l-5 18l-3 388h87v67l-85 1l-5 35l-7 28l-24 34l-8 17l-6 25l3 21q3 8 12 17
l22 6l19 1l12 -12l5 -5q2 -2 5 -9.5t8 -18.5l11 -26l15 -18l21 -10l20 -1l19 7l18 10l8 15q2 8 2 12v11z" />
    <glyph glyph-name="g" unicode="g" horiz-adv-x="555" 
d="M538 -34l-7 34l-11 28l-23 27l-24 20l-46 15l-46 7l-103 -5l-85 -6l-24 9l-14 17l1 18l14 17l36 -9l39 -5l68 6l46 17l22 9l28 20l28 24l19 25l16 27l10 37l5 33l-6 37l-8 37l-16 26l-21 27l-51 31l-33 8l-31 4q-14 0 -38 -3l-32 -4q-11 14 -11 22l5 18q22 8 27 8l29 -6
l36 7l21 11l11 22l1 24l-14 23q-5 7 -21 21q-22 7 -44 7l-40 1l-28 -14l-21 -15q-5 -10 -7.5 -17t-3.5 -12l-5 -34l7 -38l14 -41l-48 -22l-45 -29l-25 -35l-21 -42q-7 -22 -7 -39l-1 -39l11 -41l13 -34l25 -29l25 -18l-40 -9l-36 -16l-21 -22l-17 -28l-2 -27l2 -27l16 -26
l21 -21q24 -11 35 -15q8 -2 41 -7l98 1l71 -4l26 -3l27 -7l28 -13q9 -8 12 -15l-6 -15l-23 -14l-38 -9l-52 -4q-26 -2 -42 -3t-21 -2l-37 -12l-24 -22q-9 -11 -21 -45l106 -59q0 27 3 38l14 33l27 21l36 13q51 0 80 7l53 12l37 23l33 28l12 30zM355 273l-12 -35l-15 -38
l-29 -22q-6 -4 -29 -8l-30 10l-28 20l-17 32l-12 41v80l12 40l17 34l28 20q11 4 29 9l30 -9l28 -20q13 -21 16 -39l11 -35v-37l1 -30v-13z" />
    <glyph glyph-name="h" unicode="h" horiz-adv-x="634" 
d="M617 250l-3 39l-4 37l-12 35l-14 32l-21 29l-29 31l-35 21l-45 22l-200 -105l1 369l-71 -11l-41 -12l-47 -15l-39 -18l-38 -24l34 -4l22 -17l6 -20l2 -536l-6 -37l-11 -22l-27 -9h-21v-33h300l1 34l-36 3l-12 6l-9 11l-5 18l-3 28v244l120 40l43 -36q14 -12 35 -36
q4 -8 7 -17t7 -20l7 -37l-5 -25l-12 -49l-39 -76l-43 -74q-7 -11 -11 -19t-6 -15l-13 -39l-3 -37l3 -38l20 -36l30 -37l-4 23q-3 18 -2 22l3 36l11 24q12 20 24 35l111 98l30 44l31 62l14 49z" />
    <glyph glyph-name="i" unicode="i" horiz-adv-x="337" 
d="M256 658l-6 26q-2 5 -6 14t-10 20l-30 18q-4 2 -13 4.5t-23 6.5l-38 -11l-27 -18l-16 -29l-6 -31l7 -33l15 -28l28 -19l37 -9l36 9l30 19l16 31zM319 36l-36 3l-12 6l-9 11l-5 18l-2 445l-71 -12l-88 -29l-40 -20l-37 -22l34 -4l22 -17l6 -20l2 -292l-6 -37l-11 -22
l-27 -9h-21v-33h300z" />
    <glyph glyph-name="j" unicode="j" horiz-adv-x="297" 
d="M278 658l-7 32q-1 8 -15 28l-28 18q-4 3 -36 11l-38 -11q-9 -3 -29 -18l-15 -28l-7 -32l7 -33l15 -28l29 -19l38 -9l35 9q10 4 29 19l16 29zM277 519l-70 -12l-89 -29l-40 -20l-37 -22l35 -4l21 -17l6 -20l2 -397l-5 -41l-7 -34l-31 -68l-21 -27l-25 -28l108 22l44 18
l38 20l28 31l23 34l12 48q7 25 7 51z" />
    <glyph glyph-name="k" unicode="k" horiz-adv-x="620" 
d="M603 113l-15 59l-16 27l-20 30l-51 43l-37 18l-37 12l45 38q12 13 20 22t12 14q13 30 13 49v26l-16 31l-23 35l-137 -81l31 -16q7 -10 10 -27l-5 -17l-8 -17l-41 -53l-74 -72l1 530l-71 -14l-88 -26l-39 -19l-38 -25l34 -4l22 -17l6 -20l2 -536l-6 -37l-11 -22l-27 -9
h-21v-33h300l1 34l-36 3l-12 6l-9 11l-5 18l-3 28v89l34 34l24 -10l30 -13l31 -23l30 -25l14 -26l1 -25l-7 -35l-7 -31l-12 -38l-6 -30l2 -34l11 -33q31 -26 41 -32l39 -19l-17 31q-2 8 -2 24l10 23l17 22l47 40l27 23l17 18l11 13l11 21l3 32v15z" />
    <glyph glyph-name="l" unicode="l" horiz-adv-x="337" 
d="M319 36l-36 3l-12 6l-9 11l-7 708l-71 -14l-88 -26l-39 -19l-38 -25l34 -4l22 -17l6 -20l2 -536l-6 -37l-11 -22l-27 -9h-21v-33h300z" />
    <glyph glyph-name="m" unicode="m" horiz-adv-x="988" 
d="M969 250l-8 76l-12 35l-14 32l-21 29l-29 31l-35 21l-45 22l-199 -104l-27 35l-34 35l-44 21q-6 4 -46 10l-198 -102l1 106l-75 -8l-44 -13l-44 -15l-38 -21l-40 -26l37 -4q15 -9 23 -17l4 -18q0 1 2 -7l1 -265l-6 -37l-10 -22q-7 -2 -12 -4t-9 -4l-27 -1v-33h300l1 34
l-34 3q-17 8 -23 17l-5 18l-3 28l1 234l13 16q1 3 21 14l27 7l29 4l28 -4l26 -5l19 -14l13 -16l1 -235l-8 -36l-9 -23q-7 -2 -12 -4l-10 -4l-27 -1v-33h301l1 34l-36 3l-12 6l-9 11l-6 18l-3 28v238l118 50l16 -16l16 -16q3 -4 6 -7l7 -7l24 -30l12 -39l5 -36l-6 -38
l-10 -38l-75 -149l-13 -29l-13 -42v-30l1 -20l3 -24l21 -37l29 -37q-4 19 -6 30t-1 16l3 35l15 30l22 29l25 24l64 53l22 21l26 38l21 38l14 30l12 49z" />
    <glyph glyph-name="n" unicode="n" horiz-adv-x="635" 
d="M617 250l-8 76l-11 31l-16 36l-21 29l-28 31l-35 21l-45 22l-200 -105l1 106l-70 -13l-47 -15l-42 -14l-39 -21l-38 -24l35 -1q14 -7 21 -17l6 -21l2 -268l-6 -37l-11 -22l-27 -9h-21v-33h300l1 34h-18l-17 3q-13 7 -22 17l-5 18l-3 28v244l121 40q42 -39 68 -75l12 -34
l6 -40l-7 -39l-11 -36l-37 -75l-21 -37l-18 -37l-16 -35l-11 -37v-29l1 -20l3 -24l21 -37l29 -36l-4 23q-3 18 -2 22l3 36l14 30q2 6 8 13q9 13 13 16l25 24l86 74l25 37l21 39l15 30l13 49z" />
    <glyph glyph-name="o" unicode="o" horiz-adv-x="559" 
d="M540 262l-5 39l-5 32l-17 36l-20 41l-52 55l-35 20l-49 21l-35 7l-55 6l-55 -20l-31 -14l-29 -22l-21 -23q-11 -28 -11 -35v-19l9 -28l12 -26l19 -18l21 -14l22 -4q5 -1 9.5 -1.5t7.5 -0.5h13l29 9l31 16l-28 7l-20 11l-8 22l3 18l18 18q7 7 31 19h44l65 -7
q28 -15 31 -19l27 -24l15 -36q2 -12 3 -20.5t2 -13.5l-8 -38l-14 -37l-25 -29l-28 -24l-28 -12q-5 -2 -9 -3l-8 -2q-11 -4 -45 -7q-31 0 -41 3l-42 12l-33 18l-27 20l-29 29l-20 30l-13 27q-5 16 -8.5 26.5t-5.5 17.5l-2 27l1 40l12 37l13 33l-19 -11l-16 -12l-17 -23
l-14 -21l-13 -31l-8 -27l-10 -67l1 -45l5 -36l12 -34l14 -33l15 -22l31 -35l28 -21l41 -21q36 -13 52 -14l43 -6l52 4l45 9l50 21l36 21l28 26l24 28l18 34l18 43l7 36z" />
    <glyph glyph-name="p" unicode="p" horiz-adv-x="631" 
d="M614 271l-6 35l-10 41l-16 32l-21 35l-23 24l-30 25q-13 7 -30 12t-37 10l-186 -94l1 112l-71 -12l-39 -11l-49 -15l-32 -18l-45 -33l35 -4l22 -17l4 -18q0 1 2 -7l1 -517l-6 -32l-10 -23l-21 -7l-28 -1v-33h302l1 35l-28 1l-22 5l-12 22l-5 31l1 154l80 1l59 7l59 18
l43 19l39 30l29 29l24 39l14 34l9 45q1 5 1.5 11.5t0.5 14.5v20zM472 235l-7 -42l-7 -37l-13 -27l-18 -29l-22 -22l-19 -15l-25 -13l-24 -7l-20 -3h-21l-30 8q-6 5 -10 19l-1 279l37 14l37 9l40 -2l31 -5q20 -11 26 -18l24 -25l14 -38q2 -5 4 -16.5t4 -29.5z" />
    <glyph glyph-name="q" unicode="q" horiz-adv-x="643" 
d="M624 -210l-26 1l-20 5q-11 14 -13 21l-6 32v552q14 32 24 44q8 9 39 23v33l-234 2l-63 -6l-75 -11l-61 -22l-43 -20l-43 -33l-30 -29q-11 -17 -17.5 -27t-8.5 -13l-16 -34l-9 -37q-5 -23 -5 -54l5 -35l11 -41l17 -32l26 -35l27 -24l38 -24l36 -13l52 -11l158 100l1 -251
l-7 -33l-11 -22l-23 -7l-24 -1v-33h299zM388 436l-1 -290l-47 -19l-36 -9l-34 2l-29 11l-25 21l-16 21l-13 31l-8 30v80l8 31l14 34l10.5 14t6.5 9l26 27l25 11q16 5 25 7.5t12 3.5q18 0 32 -3z" />
    <glyph glyph-name="r" unicode="r" horiz-adv-x="540" 
d="M523 424l-11 28l-8 16l-16 15l-22 13l-51 5l-39 -9l-33 -9l-45 -23l-43 -25l1 62l-71 -13l-48 -15l-40 -14l-39 -21l-38 -24l34 -1q14 -6 22 -17l6 -21l2 -268l-6 -37l-11 -22l-27 -9h-21v-33h300l1 34l-36 3l-12 6l-9 11l-5 18l-3 28l1 290q40 17 73 17q29 -11 38 -19
l38 -31l25 -11l25 -4l24 5l23 13l13 26q2 4 4 13t4 23z" />
    <glyph glyph-name="s" unicode="s" horiz-adv-x="564" 
d="M546 150l-2 29l-9 29l-20 26l-25 28l-37 24l-45 22l-66 19q-5 2 -9.5 3.5t-9.5 3.5l-33 7l-35 19l-25 22l-9 29l4 24l21 15q4 2 13 4t23 4q49 0 64 -7l31 -14l31 -19q4 -4 40 -10q10 3 17.5 6.5t14.5 7.5q5 6 10 18l8 23q1 6 1.5 12.5t0.5 13.5v30l-28 -17l-30 -13
l-30 -4l-34 6l-61 9l-86 -3l-41 -11l-36 -11l-33 -19l-30 -25l-15 -27l-9 -29l5 -29l13 -29l34 -32l40 -25l65 -26l74 -20l37 -16l28 -20q13 -19 14 -27l6 -26l-8 -26l-16 -22l-28 -15q-5 -3 -33 -6l-49 1l-47 5l-23 6l-32 13l-15 15l-11 20l-7 35l-1 19l-31 -21
q-4 -2 -10 -9t-16 -18l-19 -36l-15 -38l-4 -26v-38l37 19q4 3 15 6l18 5l45 -2l40 -3l42 -4q1 0 3.5 -0.5l7.5 -1.5h66l58 4l47 9l42 16l37 17l28 22l22 24l13 26q4 6 7 29z" />
    <glyph glyph-name="t" unicode="t" horiz-adv-x="440" 
d="M423 176q-15 -18 -24 -26l-26 -16l-25 -2q-14 4 -24.5 5.5t-15.5 2.5q-19 16 -23 23l-11 28v294h87v66h-87l2 213l-72 -19l-91 -30l-35 -16l-37 -19l33 -4l22 -17l6 -20l1 -27v-61h-86v-66h86l1 -293l4 -53l16 -52l20 -33l24 -27l35 -19l33 -6q27 0 42 5l32 12l31 23
l31 31q13 20 20 32.5t9 17.5z" />
    <glyph glyph-name="u" unicode="u" horiz-adv-x="636" 
d="M617 36l-36 3l-12 6l-9 11l-6 18l-1 429l-71 -17l-88 -31l-39 -21l-38 -24q17 0 26 -3l21 -5q10 -14 11 -20q5 -20 5 -36l1 -193q-21 -18 -33 -25l-24 -13q-8 -2 -15.5 -3t-14.5 -2l-19 -1h-20l-26 9l-21 13l-23 23l-13 30l1 26l8 29l30 66l13 31l11 38v19l-3 21l-5 24
l-29 36l-38 33l-76 -71l24 -13l18 -13l7 -20l1 -21l-9 -26l-11 -26l-41 -59l-23 -26l-20 -29q-2 -8 -4 -15t-4 -12l-3 -27l5 -29l10 -27l18 -24l25 -23l39 -21l26 -9l47 -9l49 -5l142 100v-100h236z" />
    <glyph glyph-name="v" unicode="v" horiz-adv-x="594" 
d="M577 524l-56 -28l-52 -19l-39 -10q-8 -2 -13.5 -2.5t-9.5 -1.5h-29l19 -13l12 -13l7 -21l3 -22l-6 -60l-19 -67l-25 -64l-16 -39l-14 -28l-21 16l-18 25l-9 30l-9 35l-14 86l-7 39l-9 43l-13 32l-15 28l-27 21l-28 10l-152 -77l37 -7l26 -11l21 -27l16 -27l13 -42
l30 -133l12 -39l16 -43q10 -18 21 -31l28 -31l34 -18l47 -13l116 117l-36 -10q-14 0 -27 9z" />
    <glyph glyph-name="w" unicode="w" horiz-adv-x="918" 
d="M900 524l-56 -23l-53 -20q-10 -4 -20.5 -6.5t-22.5 -4.5l-45 -7l16 -10l14 -16l5 -20l4 -23l-6 -60l-18 -67l-26 -64l-31 -67l-21 16l-18 25l-9 30l-9 35l-14 87l-7 41l-9 43l-13 32l-15 29q-21 19 -32 23q-4 4 -24 10l-151 -83l33 -4l27 -18l18 -20l13 -25l6 -18
l-11 -68l-13 -30l-18 -38l-26 -38l-23 -29l-24 15l-21 26l-12 31l-9 34l-15 87l-17 84l-13 31l-15 29q-21 19 -32 23q-4 4 -24 10l-145 -71q21 0 32 -4l23 -8l17 -20l16 -22l21 -66l15 -78l17 -81l12 -34l15 -38l22 -31l24 -24l32 -17q6 -4 38 -10l122 100l-29 1l-24 9
l96 146l10 -80l10 -41l17 -40l22 -34l28 -28q18 -11 25 -12l15 -5q7 -4 47 -10l115 95l-39 -1q-16 6 -25 16z" />
    <glyph glyph-name="x" unicode="x" horiz-adv-x="651" 
d="M632 2v33l-40 21l-32 29l-178 222l204 204l-63 -7l-120 -18l18 -15l8 -13q0 -15 -5 -30l-9 -23l-22 -32l-30 -35l-70 92l-14 24q-2 4 -4 10.5t-4 16.5v19l7 19l-90 -20l-41 -13l-36 -15l-27 -15l-24 -16q29 -7 41 -12q9 -4 35 -27l123 -166l-63 -69l-60 -64l-30 -26
l-29 -21l-29 -14l-29 -6v-33h210l1 34q-8 1 -14.5 2t-11.5 3l-12 11l2 23l16 32l28 35l48 49l58 -78l16 -24l13 -25q0 -10 -2 -20q-14 -9 -30 -9v-33h291z" />
    <glyph glyph-name="y" unicode="y" horiz-adv-x="594" 
d="M578 524l-56 -28l-52 -19l-39 -10q-8 -2 -13.5 -2.5t-9.5 -1.5h-29l16 -11l18 -17l15 -45l1 -64l-15 -72l-24 -67l-19 -38l-18 -30l-26 23l-17 23l-15 32l-10 30l-17 71l-14 78l-16 61l-27 45q-7 5 -11.5 7.5t-6.5 3.5l-23 8l-152 -77l37 -7l26 -11l21 -27l16 -27l13 -42
l30 -133l10 -39l17 -43l18 -31l31 -31l33 -17l47 -13l-24 -41q-7 -10 -31 -31l-48 -16q-8 -2 -12.5 -3.5t-6.5 -2.5q-6 -1 -13.5 -2t-15.5 -3l-89 -5l1 -143q29 0 47 3l37 6l32 16l33 19l23 23q16 16 33 40l49 97z" />
    <glyph glyph-name="z" unicode="z" horiz-adv-x="595" 
d="M576 523l-39 -12q-12 -4 -28 -4h-299l-36 5l-42 11l-50 -210l22 32l22 22l21 6q10 2 21 2l213 -1l-363 -385l76 12l354 1q15 0 24 -6q7 -7 12.5 -13t10.5 -12l42 208l-19 -23q-4 -6 -25 -20q-20 -5 -31 -5l-250 -1z" />
    <glyph glyph-name="braceleft" unicode="{" horiz-adv-x="385" 
d="M366 877q-53 0 -71 -3l-59 -10l-49 -20l-31 -18q-27 -27 -28 -29l-16 -27l-11 -38l-5 -32l-1 -44v-44l4 -80l-1 -35l-3 -39l-9 -32l-14 -35l-22 -26l-31 -26l79 4l52 9l50 18q5 2 13 6.5t19 12.5l27 28l16 26q4 11 6.5 20t4.5 16q4 7 7 32l-2 87l-4 79v11l1 25l3 40l7 32
l15 36l21 27zM367 -185l-27 25l-31 35l-13 38l-8 40v83l5 89l-9 82l-13 29q-2 5 -8 15t-15 24l-37 25l-44 22l-66 13q-10 2 -29 3t-48 1l-7 -1l34 -29l25 -31l13 -38q2 -7 8 -40l1 -87l-4 -42l-1 -46l8 -79l16 -35l22 -33l35 -24l48 -23l66 -13q15 -3 65 -3h14z" />
    <glyph glyph-name="bar" unicode="|" horiz-adv-x="95" 
d="M75 -185v1057h-55l2 -1058z" />
    <glyph glyph-name="braceright" unicode="}" horiz-adv-x="392" 
d="M375 339l-29 25l-30 35l-14 37q-2 5 -4 15.5t-4 26.5v89l3 90l-3 45l-5 39q-6 16 -10.5 27t-8.5 16l-17 27q-45 31 -83 48l-66 14q-17 4 -79 4l33 -30l25 -34l13 -39l8 -41l1 -90l-4 -89l1 -42l7 -41l14 -32l24 -37l30 -22l53 -25l66 -13q15 -3 65 -3h14zM320 286l17 20
q13 12 22 20t14 12q-52 0 -88 -6l-42 -7l-41 -16l-40 -21l-27 -28l-16 -26l-13 -37l-4 -31l-1 -43v-42l3 -78l-6 -71l-11 -30l-14 -35l-21 -24l-34 -27q20 0 39.5 1.5t36.5 3.5l56 8l48 18l35 17l27 29l17 25l10 36l7 32l1 84l-3 77l4 74q4 18 12 37z" />
    <glyph glyph-name="asciitilde" unicode="~" horiz-adv-x="335" 
d="M272 303l24 33q5 6 21 43l-30 -12q-11 -3 -45 -3l-37 9l-32 9l-58 18l-29 -2l-25 -9l-24 -34l-19 -41l29 9q10 3 46 3l37 -10l31 -8l32 -11l25 -6l27 1z" />
    <glyph glyph-name="quotesinglbase" unicode="&#x201a;" horiz-adv-x="251" 
d="M233 41l-1 40l-9 43l-16 30l-22 27l-39 18q-8 4 -31 4q-36 -6 -41 -9l-31 -16l-17 -25l-7 -26l7 -29l17 -24l32 -17q6 -3 40 -10q8 -30 8 -47l-7 -24l-9 -25l-35 -48l-25 -20l-24 -17l58 10l58 20l35 30l30 32l19 42q4 4 10 41z" />
    <glyph glyph-name="florin" unicode="&#x192;" horiz-adv-x="389" 
d="M110 336h1q0 -15 -3 -25q-3 -14 -3 -40v-11h-6h4q0 -4 2 -2l-4 -21v-23q-3 -33 -3 -38q0 -20 6 -56q4 -18 5.5 -31.5t2.5 -21.5q4 -12 27 -49q21 -33 21 -44q-2 -38 -5 -41l1 1q-32 -42 -52 -42q-22 0 -45 20q-4 7 -6 14l-4 14l1 26l-4 19q-9 25 -21 29q-20 0 -26 -2
t-13 -12.5t-7 -16.5q0 -27 23 -59l13 -14l24 -17q16 -9 30 -12q12 -2 19.5 -3t10.5 -2q33 2 48 10q51 29 69 67q3 18 15 59q10 37 12 62q13 43 13 133q2 8 2.5 14t1.5 10l-1 20l4 42v33l4 48q35 1 55 1.5t25 -0.5q4 0 4 12q0 11 -5 11h-76l-1 30q-1 13 -2.5 25.5t-4.5 26.5
q-5 14 -10.5 26.5t-11.5 25.5q-4 7 -7.5 11.5t-5.5 8.5q-14 37 -18 42v6h-3q0 26 20 48q19 25 44 25q22 0 40 -23q9 -17 9 -44q6 -40 11 -50q11 -11 13 -11q13 1 33 6q14 16 14 37t-23 53q-14 18 -38 31q-33 18 -67 18q-16 0 -37 -8q-35 -14 -44 -27q-25 -9 -46 -102
q-19 -79 -19 -127l-3 -27h-53q-10 0 -8 -11q1 -13 5 -13h53v-37v-2z" />
    <glyph glyph-name="quotedblbase" unicode="&#x201e;" horiz-adv-x="514" 
d="M495 38l-1 40l-8 43l-16 30l-22 26q-7 4 -11.5 6.5t-8.5 4.5q-6 2 -10 3.5t-6 2.5l-35 9q-36 -6 -41 -9l-31 -16l-17 -25l-7 -26l7 -29l17 -24l32 -17q6 -3 40 -10q8 -30 8 -47l-7 -24l-9 -25l-35 -48l-25 -20l-24 -17l59 10l58 20l35 29q6 5 13.5 13t15.5 19l19 42
q2 3 10 39zM235 39l-2 38l-9 44l-16 31l-22 26l-37 18l-33 7q-36 -6 -41 -9l-31 -16l-18 -26l-7 -25l7 -29l18 -24l32 -17q6 -3 40 -10q8 -30 8 -47l-6 -24l-10 -25l-17 -26l-17 -22l-25 -20l-24 -17l58 9l57 21l35 29l30 32l18 43z" />
    <glyph glyph-name="ellipsis" unicode="&#x2026;" horiz-adv-x="879" 
d="M859 101l-8 35l-16 34q-24 18 -34 21q-16 5 -26 7.5t-15 3.5l-40 -11l-31 -19l-18 -34l-7 -35l7 -36l18 -32l27 -18q13 -8 45 -14l41 10q17 7 33 20l17 33zM215 101l-8 35l-16 34q-24 18 -34 21q-16 5 -26 7.5t-15 3.5l-40 -11l-31 -19l-18 -34l-7 -35l7 -36l18 -32
l27 -18q13 -8 45 -14l41 10q17 7 33 20l17 33zM537 101l-8 35l-16 34q-24 18 -34 21q-16 5 -26 7.5t-15 3.5l-40 -11l-31 -19l-18 -34l-7 -35l7 -36l18 -32l27 -18q13 -8 45 -14l41 10q17 7 33 20l17 33z" />
    <glyph glyph-name="dagger" unicode="&#x2020;" horiz-adv-x="575" 
d="M335 490h230v95h-230v189h-96v-189h-230v-95h230v-595h96v595z" />
    <glyph glyph-name="daggerdbl" unicode="&#x2021;" horiz-adv-x="405" 
d="M390 -73l-322 952l-53 -1l321 -951h54z" />
    <glyph glyph-name="circumflex" unicode="&#x2c6;" 
d="M424 578l-97 173h-66l-97 -173l130 93z" />
    <glyph glyph-name="Scaron" unicode="&#x160;" horiz-adv-x="738" 
d="M517 997l-130 -92l-131 92l98 -172h67zM720 254l-11 71l-17 35l-22 40l-27 27l-30 25l-41 20q-23 8 -36.5 13t-18.5 7l-49 7q-11 2 -18.5 2.5t-11.5 1.5h-25l-53 7l-51 14l-29 22l-24 29l-9 27l-1 28l9 28q2 8 15 23l23 13q7 4 35 9l57 -2l54 -7l28 -14l28 -17l29 -36
l15 -18l17 -16l30 -12l31 -1l27 5l22 10l21 29l11 25l8 40q5 8 5 54l-36 -24l-26 -10l-28 -6l-31 3l-34 13l-36 15l-38 14l-87 16h-91l-89 -17l-38 -17l-30 -19l-30 -30l-21 -27l-16 -37q-2 -4 -4 -12t-4 -20v-24l2 -27l6 -30l17 -32l30 -35l36 -27l55 -26q28 -8 48 -13
t33 -7l58 -9l47 -8l44 -15l30 -24l27 -25l20 -37q2 -4 4.5 -12t6.5 -22v-21l-2 -24l-6 -28l-20 -30l-23 -25l-39 -18q-19 -5 -32 -8.5t-21 -5.5l-58 10l-35 11l-36 22l-31 28l-25 40l-15 31l-10 42q-2 10 -2 44l-39 -26l-35 -27l-29 -34l-25 -36l-18 -40q-2 -5 -5 -15
t-8 -24q-1 -8 -2 -14t-2 -11v-50l38 21l48 18l38 -1l36 -4l91 -20l64 -11q16 -3 64 -3h12q40 0 60 3l45 7l63 26l32 16l30 25l28 28l21 33l20 43l8 35z" />
    <glyph glyph-name="guilsinglleft" unicode="&#x2039;" horiz-adv-x="226" 
d="M206 85l-63 267l63 266l-192 -269z" />
    <glyph glyph-name="OE" unicode="&#x152;" horiz-adv-x="1220" 
d="M1201 210l-24 23l-23 -40l-20 -27l-30 -28l-37 -28l-34 -19l-44 -20l-52 -17l-46 -10l-55 -9q-6 -1 -13 -1.5t-15 -0.5h-22l2 251l31 33l32 27l28 11l27 5l20 -8l19 -13l9 -25l5 -31l131 129l-27 48l-22 20l-24 16l-29 7h-28l-31 -15l-31 -22l-112 -134l2 369l87 -8
l77 -18l41 -16l32 -15l37 -20l33 -22l47 -45l18 -30l15 -28l26 22l-47 222l-31 -9q-4 -1 -8.5 -1.5t-10.5 -0.5h-500l-2 1q-28 11 -29 11l-74 21l-104 3l-57 -20l-48 -23q-14 -14 -22 -22.5t-10 -11.5l-24 -37l-6 -37v-48l14 -35q4 -11 27 -40q17 -16 30 -20l33 -13l30 -3
l33 4l25 13l22 17l-26 -2l-31 7l-14 17l-5 22l11 27l15 19l31 15q14 5 24.5 7.5t16.5 3.5h38l33 -1l36 -4q6 -2 11.5 -4.5t10.5 -4.5l1 -425l-46 -20l-42 -7h-58l-58 16l-43 18l-46 27l-33 27l-26 29l-28 41l-16 38l-18 57l-7 47v50l4 52l11 51l15 51l22 56l-46 -28l-38 -28
l-30 -29l-33 -40l-20 -34l-20 -43l-10 -36l-9 -46v-29l1 -27v-28l6 -36l12 -45l28 -62l25 -39l23 -29l29 -28l34 -30l43 -25l36 -15l50 -14l39 -7h54l49 1l48 11l33 10v-26h560h33l32 -9z" />
    <glyph glyph-name="quoteleft" unicode="&#x2018;" horiz-adv-x="251" 
d="M232 486l-11 31l-13 22l-31 16q-14 5 -23.5 7.5t-14.5 3.5q-8 12 -11 25l8 40l20 43l32 43l21 19l21 14l-60 -11l-58 -20l-35 -30l-29 -31l-19 -45q-3 -5 -11 -40l1 -42l9 -42l16 -31l23 -26l35 -17q6 -3 36 -6l39 8l31 16l16 24q2 4 4 11t4 18z" />
    <glyph glyph-name="quoteright" unicode="&#x2019;" horiz-adv-x="250" 
d="M232 593l-1 40l-9 43l-16 30l-22 27l-39 18q-8 4 -31 4q-36 -6 -41 -9l-31 -16l-17 -25l-7 -26l7 -29l17 -24l32 -17q6 -3 40 -10q8 -30 8 -47l-7 -26l-9 -25l-35 -48l-25 -20l-24 -17l58 10l58 20l35 30l30 32l19 43q4 5 10 42z" />
    <glyph glyph-name="quotedblleft" unicode="&#x201c;" horiz-adv-x="507" 
d="M488 489l-8 27l-15 26l-32 17q-6 4 -38 10q-7 12 -9 26l3 18l5 21l20 42l32 43l20 19l21 14l-60 -12l-57 -20l-35 -30l-30 -31l-19 -44l-9 -40v-13l1 -33l8 -37l16 -31l22 -25l35 -17l35 -6l40 8l31 16l15 25zM231 486l-8 26l-15 27l-32 17q-6 4 -39 10q-8 11 -9 25l2 18
l6 22l20 43l32 43l21 19l21 14l-60 -11l-58 -20l-35 -29l-29 -31l-20 -44l-9 -40v-13l1 -34l8 -37l16 -30l22 -26l35 -18l35 -8l40 8l32 16l15 25q3 4 8 28z" />
    <glyph glyph-name="quotedblright" unicode="&#x201d;" horiz-adv-x="514" 
d="M495 590l-1 40l-8 43l-16 30l-22 26q-7 4 -11.5 6.5t-8.5 4.5q-6 2 -10 3.5t-6 2.5l-35 9q-36 -6 -41 -9l-31 -16l-17 -25l-7 -26l7 -29l17 -24l32 -17q6 -3 40 -10q8 -30 8 -47l-7 -26l-9 -25l-35 -48l-25 -20l-24 -17l59 10l58 20l35 29q6 5 13.5 13t15.5 19l19 42
q4 6 10 41zM235 591l-2 38l-9 44l-16 31l-22 26l-37 18l-33 7q-36 -6 -41 -9l-31 -16l-18 -26l-7 -25l7 -29l18 -24l32 -17q6 -3 40 -10q8 -30 8 -47l-6 -26l-10 -25l-17 -26l-17 -22l-25 -20l-24 -17l58 9l57 21l35 29l30 32l18 43z" />
    <glyph glyph-name="bullet" unicode="&#x2022;" horiz-adv-x="335" 
d="M316 401l-5 35l-12 39l-20 27l-25 24l-34 14q-23 9 -50 9l-43 -8l-43 -15l-26 -24l-21 -27l-13 -39l-5 -35l8 -43l10 -29l21 -27l26 -25q8 -4 18 -8t24 -9l45 -6l41 7l42 16l24 24l21 28l12 39z" />
    <glyph glyph-name="endash" unicode="&#x2013;" horiz-adv-x="1000" 
 />
    <glyph glyph-name="emdash" unicode="&#x2014;" horiz-adv-x="1000" 
 />
    <glyph glyph-name="tilde" unicode="&#x2dc;" 
d="M391 633l19 38q5 11 6 16l11 31l-31 -21q-4 -4 -32 -10l-28 2l-27 10l-30 15l-25 16l-25 12l-25 9l-20 -4l-20 -11l-20 -37l-15 -47l30 18q8 5 34 11l28 -6l26 -8l54 -32l23 -11l26 -9l20 5z" />
    <glyph glyph-name="trademark" unicode="&#x2122;" horiz-adv-x="822" 
d="M116 710l-6 -94h16q8 74 62 74h5v-205q0 -23 -17 -25l-15 -2v-16h130v16l-15 2q-17 2 -17 25v205h3q56 0 64 -74h16l-6 94h-220zM370 710v-16l17 -2q18 -2 18 -25v-182q0 -24 -18 -25l-17 -2v-16h96v16l-17 2q-18 1 -18 25v182l81 -226h18l76 222v-178q0 -24 -18 -25
l-15 -2v-16h124v16l-13 2q-18 3 -18 25v185q0 22 18 25l13 2v13h-97l-63 -180l-64 180h-103z" />
    <glyph glyph-name="scaron" unicode="&#x161;" horiz-adv-x="564" 
d="M424 751l-130 -92l-131 92l98 -173h67zM546 150l-2 29l-9 29l-20 26l-25 28l-37 24l-45 22l-66 19q-5 2 -9.5 3.5t-9.5 3.5l-33 7l-35 19l-25 22l-9 29l4 24l21 15q4 2 13 4t23 4q49 0 64 -7l31 -14l31 -19q4 -4 40 -10q10 3 17.5 6.5t14.5 7.5q5 6 10 18l8 23
q1 6 1.5 12.5t0.5 13.5v30l-28 -17l-30 -13l-30 -4l-34 6l-61 9l-86 -3l-41 -11l-36 -11l-33 -19l-30 -25l-15 -27l-9 -29l5 -29l13 -29l34 -32l40 -25l65 -26l74 -20l37 -16l28 -20q13 -19 14 -27l6 -26l-8 -26l-16 -22l-28 -15q-5 -3 -33 -6l-49 1l-47 5l-23 6l-32 13
l-15 15l-11 20l-7 35l-1 19l-31 -21q-4 -2 -10 -9t-16 -18l-19 -36l-15 -38l-4 -26v-38l37 19q4 3 15 6l18 5l45 -2l40 -3l42 -4q1 0 3.5 -0.5l7.5 -1.5h66l58 4l47 9l42 16l37 17l28 22l22 24l13 26q4 6 7 29z" />
    <glyph glyph-name="guilsinglright" unicode="&#x203a;" horiz-adv-x="227" 
d="M213 352l-194 266l66 -266l-66 -267z" />
    <glyph glyph-name="oe" unicode="&#x153;" horiz-adv-x="986" 
d="M967 186l-29 16l-49 -27l-48 -25l-42 -15l-46 -10h-69l-34 8l-25 10l-22 17l-16 20l89 36l84 44l69 43l33 25l24 21l23 22l16 20l-28 35l-26 27l-34 19l-39 19l-44 11l-38 6h-16l-32 -1l-36 -3l-47 -14l-43 -16l-31 -19l-34 -28l-36 38l-35 20l-49 21l-35 7l-55 6
l-55 -20l-31 -14l-29 -22l-21 -23q-11 -28 -11 -35v-19l9 -28l12 -26l19 -18l21 -14l22 -4q5 -1 9.5 -1.5t7.5 -0.5h13l29 9l31 16l-28 7l-20 11l-8 22l3 18l18 18q7 7 31 19h44l65 -7q28 -15 31 -19l13 -11l-10 -18l-11 -36l-9 -50q0 -33 3 -45l10 -41l-24 -21l-28 -12
q-5 -2 -9 -3l-8 -2q-11 -4 -45 -7q-31 0 -41 3l-42 12l-33 18l-27 20l-29 29l-20 30l-13 27q-5 16 -8.5 26.5t-5.5 17.5l-2 27l1 40l12 37l13 33l-19 -11l-16 -12l-17 -23l-14 -21l-13 -31l-8 -27l-10 -67l1 -45l5 -36l12 -34l14 -33l15 -22l31 -35l28 -21l41 -21
q36 -13 52 -14l43 -6l52 4l45 9l50 21l36 21l28 26l2 3l31 -31l34 -24l38 -15q5 -2 11 -4t11 -3q22 -5 27 -6h45l28 1l43 9l40 12l38 17l38 22l34 26l30 28l22 30zM761 362l-9 -19l-13 -19l-20 -19l-22 -18l-32 -19l-32 -15l-74 -23l-14 38l-11 36v70l7 26l10 25l12 15
l15 13l42 6l15 -1h18l35 -15l31 -16l32 -33l8 -12q2 -8 2 -20z" />
    <glyph glyph-name="Ydieresis" unicode="&#x178;" horiz-adv-x="787" 
d="M639 912l-8 29l-15 30l-29 18q-5 4 -36 10l-38 -10l-29 -18l-15 -29l-7 -30l6 -27l16 -33l29 -17l38 -9l36 9l29 17l15 29q2 4 4 11.5t4 19.5zM395 912l-7 30l-14 29q-22 16 -29 17q-12 5 -21 7.5t-15 3.5l-38 -10l-28 -18l-17 -30l-4 -29l6 -32l15 -28l28 -17l38 -9
l36 9l29 17l17 35zM770 747l-70 -5l-50 -9l-42 -9l-45 -16l-43 -17q10 -10 18 -25l1 -16v-28l-12 -52l-29 -64l-44 -66l-160 229l-11 19l-7 24l4 22l12 18l-70 -1l-80 -13l-72 -23l-29 -15l-24 -17l23 -8l24 -14q7 -7 11.5 -13t8.5 -11q4 -4 8.5 -10.5t11.5 -16.5l173 -264
l1 -243l-5 -37l-9 -22l-20 -8l-26 -1v-33h322l2 34l-24 1l-20 7q-5 8 -7 14t-3 8l-6 36v277z" />
    <glyph glyph-name="exclamdown" unicode="&#xa1;" horiz-adv-x="272" 
d="M232 416l-8 34l-16 34l-32 20q-11 4 -41 12l-40 -11q-10 -3 -32 -21l-18 -34l-7 -34l7 -37l18 -32l31 -21q31 -10 40 -11l41 11q10 4 33 21l15 29q4 7 9 40zM254 -141l-18 22q-5 8 -9 14.5t-8 12.5l-14 31l-12 34l-12 36l-9 39l-8 41l-6 39l-8 69l-5 64l-23 -1l-17 -132
l-15 -81l-19 -77l-23 -62l-17 -28l-13 -21l32 -14l31 -20l27 -30l27 -39l32 46l21 23l32 20q5 4 14 7t20 7z" />
    <glyph glyph-name="cent" unicode="&#xa2;" horiz-adv-x="538" 
d="M521 191l-43 -26l-49 -23l-39 -11l-37 -6h-37l-36 6l-31 12l-30 16l-22 20l-19 22l-19 35l-11 25l-11 43q-2 10 -2 39l5 32l10 31l19 21l25 20q23 10 44 14l28 6l55 -11l41 -23q15 -29 18 -42q3 -12 3 -47l30 18l27 22l20 32l17 37l3 28l1 18v35l-30 -22q-4 -4 -30 -11
l-26 1l-38 6l-38 11l7 112l-53 -4l-28 -11l-26 -11q22 -4 26 -7q4 -2 10 -20l-6 -57l-49 -11l-41 -13l-39 -26l-28 -23l-23 -28l-24 -36l-16 -41l-9 -34l-2 -22v-68l6 -33l13 -41l16 -32l25 -34l25 -25l36 -25l28 -12q1 0 8 -2.5t12 -3.5l32 -8l-9 -114l73 13l5 100l42 8
l40 13l34 19l33 21l26 26l24 30l19 35z" />
    <glyph glyph-name="sterling" unicode="&#xa3;" horiz-adv-x="789" 
d="M770 142l-8 31l-16 27l-27 17l-33 13h-31l-25 -1l-22 -3q-33 -12 -48 -21l-32 -19l36 -9l26 -14q9 -21 9 -29v-8l-2 -13l-23 -19l-36 -14l-47 6l-36 7l-45 14l-53 18l44 70q11 27 14 40l10 43q0 25 -3 37l-12 48l209 -1v56h-236l-66 148l-11 36l-4 35l11 27l22 22l42 -9
q13 -5 33 -19l56 -68l36 -24l52 -14l48 7l36 16l22 30l11 22l6 12l6 28l1 37v14l-16 -7q-2 -2 -18 -5l-51 -2l-38 2l-35 5l-94 19h-36l-22 1l-34 -2q-41 -7 -51 -11l-43 -16l-27 -20q-12 -9 -31 -31q-14 -23 -21 -42l-9 -27l-4 -36l3 -38l13 -46l18 -42l-107 -2v-56h131
l20 -37l44 -64l21 -36l9 -38l1 -34v-17l-66 12l-65 8l-49 -3l-40 -6l-26 -13l-22 -14l-14 -20l-7 -20l2 -22l9 -19l20 -19l28 -15l35 -3h27l32 7l32 9l33 14l33 17l60 37l71 -34l39 -16l43 -14l53 -13q23 -4 40.5 -5.5t29.5 -1.5h10q29 0 40 3l33 9l23 11l23 18l11 14
q9 12 17 29l5 24z" />
    <glyph glyph-name="currency" unicode="&#xa4;" horiz-adv-x="667" 
d="M334 421q45 0 74.5 -31t29.5 -79t-29.5 -80t-74.5 -32t-73.5 31.5t-28.5 80.5q0 48 28.5 79t73.5 31zM53 96l66 -66l98 98q54 -33 117 -33q67 0 117 33l98 -98l66 66l-98 98q33 49 33 117q0 65 -33 115l98 98l-66 66l-98 -98q-50 33 -117 33q-63 0 -117 -33l-98 98
l-66 -66l98 -98q-31 -49 -31 -115q0 -68 31 -117z" />
    <glyph glyph-name="brokenbar" unicode="&#xa6;" horiz-adv-x="500" 
d="M200 699v-370h101v370h-101zM200 199v-368h101v368h-101z" />
    <glyph glyph-name="section" unicode="&#xa7;" horiz-adv-x="577" 
d="M558 166l-7 29l-11 27l-30 28l-33 25l36 29l31 34q10 21 11 34l3 25l-10 32l-16 27l-27 25l-35 26l-77 35l-99 22l-35 19l-25 21q-8 22 -8 30l3 23l20 15q5 2 13.5 4t21.5 4l56 -8q21 -3 41 -15l31 -19l39 -8l14 4l18 10l11 20l8 22l2 20l-1 14v20l-26 -15l-26 -13
l-29 -4l-34 5l-58 12q-15 3 -50 3l-53 -7l-39 -6l-41 -15l-30 -17l-25 -26l-21 -27l-9 -28v-28l9 -27l18 -31q13 -17 28 -26l40 -27l-35 -12l-32 -20l-18 -24l-9 -29l6 -29l14 -28l35 -34l41 -30l68 -28l75 -21l36 -15l28 -20q7 -11 12.5 -23.5t9.5 -27.5l-7 -27l-15 -22
q-21 -12 -30 -14l-38 -7l-52 2l-50 9l-33 16l-25 23l-14 29l-9 39l-32 -21q-4 -2 -10.5 -8t-14.5 -16l-19 -36l-15 -37l-3 -20l-2 -18v-14q2 -6 2 -16l37 19q4 3 15 6l18 5l44 -2l40 -3l42 -4q1 0 3.5 -0.5l7.5 -1.5h68l59 4l52 10l41 16l37 18l26 22l29 32l11 27q4 9 7 34z
M382 369l-6 -20l-8 -18l-54 8l-36 9l-34 15l-18 28q-3 9 -3 39l3 -1l41 -2l48 -5l28 -11l23 -10l11 -16z" />
    <glyph glyph-name="dieresis" unicode="&#xa8;" horiz-adv-x="609" 
d="M499 666l-8 29l-15 30q-24 16 -30 17l-37 9l-38 -9l-28 -17l-15 -29l-7 -30l6 -27l16 -33l29 -17l38 -9l37 9l29 17l15 29q2 4 4 11.5t4 19.5zM255 666l-7 30l-15 29q-22 16 -28 17l-38 9l-37 -10l-27 -16l-16 -30q-3 -4 -6 -29l7 -32q1 -8 15 -28q18 -13 28 -17l37 -9
l36 9l29 17l16 29z" />
    <glyph glyph-name="copyright" unicode="&#xa9;" horiz-adv-x="822" 
d="M412 690q-149 0 -254 -105q-104 -104 -104 -254q0 -148 104 -252q103 -103 253 -103t253 103q105 103 105 252q0 148 -105 253q-103 106 -252 106zM412 639q127 0 216 -90q88 -89 88 -218q0 -126 -89 -217q-89 -89 -216 -89q-128 0 -217 89q-88 88 -88 217q0 127 89 218
q88 90 217 90zM550 538q-6 -30 -28 -30q-4 0 -43 16t-71 16q-91 0 -150 -62q-58 -61 -58 -154q0 -91 60 -149q62 -59 151 -59q108 0 170 105l-22 14q-55 -85 -133 -85q-120 0 -120 184q0 178 114 178q98 0 129 -133h23v159h-22z" />
    <glyph glyph-name="logicalnot" unicode="&#xac;" horiz-adv-x="667" 
d="M474 108h112v307h-504v-112h392v-195z" />
    <glyph glyph-name="registered" unicode="&#xae;" horiz-adv-x="822" 
d="M412 690q-149 0 -254 -105q-104 -104 -104 -254q0 -91 41.5 -169t119.5 -129q88 -57 196 -57q145 0 251 101q106 102 106 248q0 152 -102 259q-102 106 -254 106zM412 639q127 0 215 -91q89 -92 89 -217q0 -126 -89 -217q-89 -89 -216 -89q-128 0 -217 89q-88 88 -88 217
q0 127 89 218q88 90 217 90zM227 536v-26q27 -2 39.5 -11t12.5 -35v-255q0 -44 -52 -45v-25h192v25q-28 4 -38 13t-10 32v120h9q67 0 81 -75q2 -17 2.5 -30t1.5 -21q6 -74 83 -74q84 0 84 88v11h-25v-6q0 -57 -28 -57q-18 0 -21 25l-6 52q-17 74 -107 95q72 12 104 35.5
t32 66.5q0 42 -42.5 69.5t-114.5 27.5h-197zM371 353v126q0 32 42 32q31 0 52 -21t21 -50q0 -88 -94 -88q-18 0 -21 1z" />
    <glyph glyph-name="macron" unicode="&#xaf;" horiz-adv-x="500" 
d="M137 649h226q17 0 17 20v46q0 19 -17 19h-226q-17 0 -17 -19v-46q0 -20 17 -20z" />
    <glyph glyph-name="degree" unicode="&#xb0;" horiz-adv-x="284" 
d="M265 620v29q-1 6 -1.5 10.5t-0.5 6.5l-1 18l-19 33l-23 26l-40 17q-8 3 -39 6q-41 -15 -45 -18q-11 -7 -28 -38v-22q30 22 39 24l46 12l32 -8l26 -13l12 -22l6 -24l-6 -25l-11 -22l-22 -14l-26 -7l-48 8l-33 16l-19 31q-3 10 -5.5 18.5t-4.5 16.5l1 32l9 36l-2 -2l-12 -8
l-13 -13l-9 -19l-7 -19l-2 -27v-24l5 -26l12 -24l17 -18l22 -16l37 -13q5 -1 9.5 -1.5t9.5 -0.5h19l40 8l38 16l20 26q3 3 17 34z" />
    <glyph glyph-name="plusminus" unicode="&#xb1;" horiz-adv-x="667" 
d="M279 440h-191v-109h191v-154h109v154h190v109h-190v154h-109v-154zM88 0h490v109h-490v-109z" />
    <glyph glyph-name="acute" unicode="&#xb4;" horiz-adv-x="607" 
d="M491 751h-173l-41 -173z" />
    <glyph glyph-name="paragraph" unicode="&#xb6;" horiz-adv-x="743" 
d="M724 656l-2 -2l-35 23l-37 19l-52 18l-44 14l-87 13h-103l-84 -12l-79 -23l-38 -17l-40 -22l-54 -45l-20 -28l-19 -35l-8 -31l-4 -31l4 -46l14 -62l23 -37q5 -5 14.5 -15.5t25.5 -26.5l41 -18l54 -8l-1 -440q-14 -32 -20 -36q-9 -9 -41 -22v-33h232v33q-16 7 -26 12
t-15 9q-10 8 -20 37v577l5 42l12 42l16 31l22 31l49 38l29 14l27 9l52 8l-1 -784q-15 -36 -21 -42q-8 -11 -40 -24v-33h234v33q-18 5 -28.5 9.5t-14.5 6.5q-6 4 -18 36v755l8 34l11 13l18 10l23 4q6 1 15.5 1.5t22.5 0.5z" />
    <glyph glyph-name="questiondown" unicode="&#xbf;" horiz-adv-x="596" 
d="M392 416l-8 35l-16 34l-33 21q-5 4 -41 10l-33 -8q-7 -2 -16 -8t-22 -15l-17 -33l-7 -36l7 -37l17 -33q28 -22 72 -31l40 10l33 21l15 30q5 9 9 40zM579 -67l-4 23l-8 20l-18 17l-18 9q-5 1 -10.5 1.5t-11.5 0.5h-25l-24 -10l-16 -13l-17 -31l-12 -37l-17 -30l-22 -31
l-27 -15q-3 -3 -31 -14l-29 1l-27 4l-28 18l-19 20l-14 37l-6 38l2 46l11 46l13 24l18 23l33 33l17 28l14 30l11 53q1 5 1.5 12.5t0.5 17.5v30l-34 1l-7 -38l-14 -36l-22 -22l-23 -19l-66 -35l-33 -19l-32 -23l-25 -27l-21 -34l-15 -51l-6 -54l4 -39l11 -31l21 -27l23 -24
l30 -19l35 -17l39 -10l41 -6l43 1h44l89 21l42 19l43 21l37 29l37 32l13 27z" />
    <glyph glyph-name="Agrave" unicode="&#xc0;" horiz-adv-x="850" 
d="M460 825l-45 172h-172zM833 2v33l-40 18l-33 32l-218 594v13q0 10 0.5 16.5t3.5 12t8 11.5t14 15h-72l-79 -14l-70 -27l-28 -18l-20 -19l39 -5l9 -16l4 -22l-233 -540l-19 -19l-21 -17l-30 -10l-31 -5v-33h216l1 34l-39 4q-16 8 -24 19l2 17l11 26l16 44l297 127l60 -170
q6 -18 5 -29l-1 -15l-12 -12l-14 -7q-13 -2 -23.5 -3.5t-20.5 -1.5v-33h342zM444 399l-172 -75l108 250z" />
    <glyph glyph-name="Aacute" unicode="&#xc1;" horiz-adv-x="849" 
d="M621 997h-172l-42 -172zM832 2v33l-40 18l-33 32l-218 594v13q0 10 0.5 16.5t3.5 12t8 11.5t14 15h-72l-79 -14l-70 -27l-28 -18l-20 -19l39 -5l9 -16l4 -22l-233 -540l-19 -19l-21 -17l-30 -10l-31 -5v-33h216l1 34l-39 4q-16 8 -24 19l2 17l11 26l16 44l297 127
l60 -170q6 -18 5 -29l-1 -15l-12 -12l-14 -7q-13 -2 -23.5 -3.5t-20.5 -1.5v-33h342zM443 399l-172 -75l108 250z" />
    <glyph glyph-name="Acircumflex" unicode="&#xc2;" horiz-adv-x="850" 
d="M560 825l-97 172h-66l-97 -172l130 92zM833 2v33l-40 18l-33 32l-218 594v13q0 10 0.5 16.5t3.5 12t8 11.5t14 15h-72l-79 -14l-70 -27l-28 -18l-20 -19l39 -5l9 -16l4 -22l-233 -540l-19 -19l-21 -17l-30 -10l-31 -5v-33h216l1 34l-39 4q-16 8 -24 19l2 17l11 26l16 44
l297 127l60 -170q6 -18 5 -29l-1 -15l-12 -12l-14 -7q-13 -2 -23.5 -3.5t-20.5 -1.5v-33h342zM444 399l-172 -75l108 250z" />
    <glyph glyph-name="Atilde" unicode="&#xc3;" horiz-adv-x="849" 
d="M549 879l19 38q5 11 6 16l11 31l-31 -21q-4 -4 -32 -10l-26 2l-29 11l-30 15l-25 16l-25 12l-25 8l-19 -2l-21 -12l-20 -39l-15 -46l30 18q8 5 34 11l28 -6l26 -8l54 -32l23 -11l26 -8l20 5q7 1 21 12zM832 2v33l-40 18l-33 32l-218 594v13q0 10 0.5 16.5t3.5 12t8 11.5
t14 15h-72l-79 -14l-70 -27l-28 -18l-20 -19l39 -5l9 -16l4 -22l-233 -540l-19 -19l-21 -17l-30 -10l-31 -5v-33h216l1 34l-39 4q-16 8 -24 19l2 17l11 26l16 44l297 127l60 -170q6 -18 5 -29l-1 -15l-12 -12l-14 -7q-13 -2 -23.5 -3.5t-20.5 -1.5v-33h342zM443 399
l-172 -75l108 250z" />
    <glyph glyph-name="Adieresis" unicode="&#xc4;" horiz-adv-x="852" 
d="M640 912l-8 29l-15 30l-29 18q-5 4 -36 10l-38 -10l-29 -18l-15 -29l-7 -30l6 -27l16 -33l29 -17l38 -9l36 9l29 17l15 29q2 4 4 11.5t4 19.5zM396 912l-7 30l-14 29q-22 16 -29 17q-12 5 -21 7.5t-15 3.5l-38 -10l-28 -18l-17 -30l-4 -29l6 -32l15 -28l28 -17l38 -9
l36 9l29 17l17 35zM834 2v33l-40 18l-33 32l-218 594v13q0 10 0.5 16.5t3.5 12t8 11.5t14 15h-72l-79 -14l-70 -27l-28 -18l-20 -19l39 -5l9 -16l4 -22l-233 -540l-19 -19l-21 -17l-30 -10l-31 -5v-33h216l1 34l-39 4q-16 8 -24 19l2 17l11 26l16 44l297 127l60 -170
q6 -18 5 -29l-1 -15l-12 -12l-14 -7q-13 -2 -23.5 -3.5t-20.5 -1.5v-33h342zM445 399l-172 -75l108 250z" />
    <glyph glyph-name="Aring" unicode="&#xc5;" horiz-adv-x="850" 
d="M521 912l-8 29l-15 30l-31 18q-14 5 -23.5 7t-13.5 3l-39 -10l-30 -18l-16 -29l-7 -30l7 -31l7.5 -15t8.5 -14q14 -9 19 -11l11 -6l39 -9l38 9l30 17l15 29q2 4 4 11.5t4 19.5zM833 2v33l-40 18l-33 32l-218 594v13q0 10 0.5 16.5t3.5 12t8 11.5t14 15h-72l-79 -14
l-70 -27l-28 -18l-20 -19l39 -5l9 -16l4 -22l-233 -540l-19 -19l-21 -17l-30 -10l-31 -5v-33h216l1 34l-39 4q-16 8 -24 19l2 17l11 26l16 44l297 127l60 -170q6 -18 5 -29l-1 -15l-12 -12l-14 -7q-13 -2 -23.5 -3.5t-20.5 -1.5v-33h342zM474 890q-12 -12 -18 -14l-26 -7
l-28 7l-17 14l-4 22v8l4 14l18 13q4 4 27 10l25 -10l19 -13l4 -22zM444 399l-172 -75l108 250z" />
    <glyph glyph-name="AE" unicode="&#xc6;" horiz-adv-x="1383" 
d="M445 399l-172 -75l108 250zM1363 210l-24 23l-23 -40l-20 -27l-30 -28l-37 -28l-34 -19l-44 -20l-52 -17l-46 -10l-55 -9q-6 -1 -13 -1.5t-15 -0.5h-22l2 251l31 33l32 27l28 11l27 5l20 -8l19 -13l9 -25l5 -31l131 129l-27 48l-22 20l-24 16l-29 7h-28l-31 -15l-31 -22
l-112 -134l2 369l87 -8l77 -18l41 -16l32 -15l37 -20l33 -22l47 -45l18 -30l15 -28l26 22l-47 222l-31 -9q-4 -1 -8.5 -1.5t-10.5 -0.5h-575l1 -31l35 -4l22 -17l4 -18q0 1 2 -7l1 -554l-213 578v13q0 10 0.5 16.5t3.5 12t8 11.5t14 15h-72l-79 -14l-70 -27l-28 -18l-20 -19
l39 -5l9 -16l4 -22l-233 -540l-19 -19l-21 -17l-30 -10l-31 -5v-33h216l1 34l-39 4q-16 8 -24 19l2 17l11 26l16 44l297 127l60 -170q6 -18 5 -29l-1 -15l-12 -12l-14 -7q-13 -2 -23.5 -3.5t-20.5 -1.5v-33h199v-2h560h33l32 -9z" />
    <glyph glyph-name="Ccedilla" unicode="&#xc7;" horiz-adv-x="791" 
d="M773 245l-50 -34l-58 -31l-48 -15l-47 -10h-15l-35 -1h-46l-41 8l-45 15l-34 16l-30 17l-31 24l-22 22l-25 36l-21 34l-20 45l-11 37l-8 37l-6 48q0 33 3 50l7 39l14 31l21 36q15 15 27 23l35 24q33 11 39 11l55 10l51 -10q11 -2 38 -15q8 -8 14 -15t11 -12l14 -17
l14 -24l18 -21q19 -12 28 -14l40 -6l29 4l25 6l19 15l16 18q8 24 8 29l5 28l-11 83l-3 -1l-14 -11l-17 -9l-21 -5q-10 -2 -16 -2h-12l-47 6l-39 19l-40 16l-44 8l-43 4l-46 -2l-36 -4l-38 -12l-33 -13l-46 -25l-42 -24l-35 -31l-30 -32l-23 -35l-19 -38l-15 -38l-12 -38
l-7 -38l-4 -38l1 -69l4 -32l5 -28l7 -21l9 -20l18 -37l20 -32l34 -40l33 -31l34 -26l36 -22l40 -21l53 -20l43 -11l43 -8h12l29 -1h44l51 9l44 14l75 42l34 32l39 47l24 47zM518 -91l-1 35l-9 30q-21 19 -27 21l-35 10l-51 -1l28 -18l22 -25l8 -26l4 -27l-8 -23l-9 -23
l-20 -14q-1 -3 -21 -11l45 2l38 13l21 27q7 7 15 30z" />
    <glyph glyph-name="Egrave" unicode="&#xc8;" horiz-adv-x="708" 
d="M399 825l-45 172h-172zM690 212l-24 23l-23 -40l-20 -27l-30 -28l-37 -28l-34 -19l-44 -20l-52 -17l-46 -10l-55 -9q-6 -1 -13 -1.5t-15 -0.5h-22l2 251l31 33l32 27l28 11l27 5l20 -8l19 -13l9 -25l5 -31l131 129l-27 48l-22 20l-24 16l-29 7h-28l-31 -15l-31 -22
l-112 -134l2 369l87 -8l77 -18l41 -16l32 -15l37 -20l33 -22l47 -45l18 -30l15 -28l26 22l-47 222l-31 -9q-4 -1 -8.5 -1.5t-10.5 -0.5h-575l1 -31l35 -4l22 -17l4 -18q0 1 2 -7l1 -554l-6 -37l-10 -22q-7 -2 -12 -4t-9 -4l-28 -1v-33h560l33 -2l32 -7z" />
    <glyph glyph-name="Eacute" unicode="&#xc9;" horiz-adv-x="708" 
d="M561 997h-173l-41 -172zM690 212l-24 23l-23 -40l-20 -27l-30 -28l-37 -28l-34 -19l-44 -20l-52 -17l-46 -10l-55 -9q-6 -1 -13 -1.5t-15 -0.5h-22l2 251l31 33l32 27l28 11l27 5l20 -8l19 -13l9 -25l5 -31l131 129l-27 48l-22 20l-24 16l-29 7h-28l-31 -15l-31 -22
l-112 -134l2 369l87 -8l77 -18l41 -16l32 -15l37 -20l33 -22l47 -45l18 -30l15 -28l26 22l-47 222l-31 -9q-4 -1 -8.5 -1.5t-10.5 -0.5h-575l1 -31l35 -4l22 -17l4 -18q0 1 2 -7l1 -554l-6 -37l-10 -22q-7 -2 -12 -4t-9 -4l-28 -1v-33h560l33 -2l32 -7z" />
    <glyph glyph-name="Ecircumflex" unicode="&#xca;" horiz-adv-x="708" 
d="M499 825l-97 172h-67l-96 -172l130 92zM690 212l-24 23l-23 -40l-20 -27l-30 -28l-37 -28l-34 -19l-44 -20l-52 -17l-46 -10l-55 -9q-6 -1 -13 -1.5t-15 -0.5h-22l2 251l31 33l32 27l28 11l27 5l20 -8l19 -13l9 -25l5 -31l131 129l-27 48l-22 20l-24 16l-29 7h-28
l-31 -15l-31 -22l-112 -134l2 369l87 -8l77 -18l41 -16l32 -15l37 -20l33 -22l47 -45l18 -30l15 -28l26 22l-47 222l-31 -9q-4 -1 -8.5 -1.5t-10.5 -0.5h-575l1 -31l35 -4l22 -17l4 -18q0 1 2 -7l1 -554l-6 -37l-10 -22q-7 -2 -12 -4t-9 -4l-28 -1v-33h560l33 -2l32 -7z" />
    <glyph glyph-name="Edieresis" unicode="&#xcb;" horiz-adv-x="709" 
d="M578 912l-8 29l-15 30l-30 18q-5 4 -36 10l-37 -10l-29 -18l-15 -29l-7 -30l6 -27l16 -33l28 -17l38 -9l37 9l29 17l15 29q2 4 4 11.5t4 19.5zM334 912l-7 30l-15 29l-28 18q-4 4 -36 10l-38 -10l-28 -18l-16 -30q-3 -4 -6 -29l7 -32q1 -8 15 -28l28 -17l38 -9l35 9
l29 17l16 29zM690 212l-24 23l-23 -40l-20 -27l-30 -28l-37 -28l-34 -19l-44 -20l-52 -17l-46 -10l-55 -9q-6 -1 -13 -1.5t-15 -0.5h-22l2 251l31 33l32 27l28 11l27 5l20 -8l19 -13l9 -25l5 -31l131 129l-27 48l-22 20l-24 16l-29 7h-28l-31 -15l-31 -22l-112 -134l2 369
l87 -8l77 -18l41 -16l32 -15l37 -20l33 -22l47 -45l18 -30l15 -28l26 22l-47 222l-31 -9q-4 -1 -8.5 -1.5t-10.5 -0.5h-575l1 -31l35 -4l22 -17l4 -18q0 1 2 -7l1 -554l-6 -37l-10 -22q-7 -2 -12 -4t-9 -4l-28 -1v-33h560l33 -2l32 -7z" />
    <glyph glyph-name="Igrave" unicode="&#xcc;" horiz-adv-x="358" 
d="M239 825l-45 172h-172zM341 36l-36 3q-13 7 -22 17l-6 580l5 36l11 22q11 7 21 7l26 1v32h-322l1 -31l35 -4l22 -17l4 -18q0 1 2 -7l1 -554l-6 -37l-10 -22q-7 -2 -12 -4t-9 -4l-28 -1v-33h322z" />
    <glyph glyph-name="Iacute" unicode="&#xcd;" horiz-adv-x="417" 
d="M400 997h-173l-41 -172zM340 36l-36 3q-13 7 -22 17l-6 580l5 36l11 22q11 7 21 7l26 1v32h-322l1 -31l35 -4l22 -17l4 -18q0 1 2 -7l1 -554l-6 -37l-10 -22q-7 -2 -12 -4t-9 -4l-28 -1v-33h322z" />
    <glyph glyph-name="Icircumflex" unicode="&#xce;" horiz-adv-x="359" 
d="M304 825l-97 172h-66l-97 -172l130 92zM341 36l-36 3q-13 7 -22 17l-6 580l5 36l11 22q11 7 21 7l26 1v32h-322l1 -31l35 -4l22 -17l4 -18q0 1 2 -7l1 -554l-6 -37l-10 -22q-7 -2 -12 -4t-9 -4l-28 -1v-33h322z" />
    <glyph glyph-name="Idieresis" unicode="&#xcf;" horiz-adv-x="452" 
d="M434 912l-8 29l-15 30l-30 18q-5 4 -36 10l-37 -10l-29 -18l-15 -29l-7 -30l6 -27l16 -33l28 -17l38 -9l37 9l29 17l15 29q2 4 4 11.5t4 19.5zM190 912l-7 30l-15 29l-28 18q-4 4 -36 10l-38 -10l-26 -18l-16 -30q-3 -4 -6 -29l7 -32q1 -8 15 -28q15 -12 27 -17l37 -9
l35 9l29 17l16 29zM380 36l-36 3q-13 7 -22 17l-6 580l5 36l11 22q11 7 21 7l26 1v32h-322l1 -31l35 -4l22 -17l4 -18q0 1 2 -7l1 -554l-6 -37l-10 -22q-7 -2 -12 -4t-9 -4l-28 -1v-33h322z" />
    <glyph glyph-name="Eth" unicode="&#xd0;" horiz-adv-x="860" 
d="M840 310v36q-3 19 -4 20l-8 54l-11 41l-15 39l-22 38l-25 36l-53 53l-78 54l-86 40l-35 11l-58 17l-97 10q-23 0 -54 -3l-41 -4l-30 -7l-46 -13l-43 -20l-40 -23l-44 -39l-26 -25h-4l2 -2l2 2l43 -3q21 -2 31 -7l14 -4l12 -15l7 -18v-229h-98v-72h99v-174q-2 -15 -3 -24
t-2 -12q-2 -7 -12 -23l-20 -7l-29 -2v-33l450 4l72 13l38 10l34 13l34 15l59 40l24 24l22 29l15 33l15 39l6 45zM634 298l-1 -21v-24l-9 -40l-16 -40l-23 -33l-28 -30l-47 -28l-47 -21l-68 -17l-71 -9v242h217v72h-217v229q5 28 12 38q6 8 29 29l-41 10l-37 6h-77l-78 -15
l36 24l37 19l40 12l40 8h13l27 -1l38 -3l40 -13l36 -13l34 -24l34 -26q8 -8 29 -36l29 -38l21 -45q5 -9 9 -20l11 -31l13 -58l12 -62z" />
    <glyph glyph-name="Ntilde" unicode="&#xd1;" horiz-adv-x="745" 
d="M576 964l-31 -21q-4 -4 -32 -10l-27 2l-29 11l-30 15l-25 16l-25 12q-10 4 -16 5.5t-8 2.5l-20 -2l-21 -12l-19 -38l-15 -47l29 18q9 5 34 11l28 -6l26 -8l54 -32l24 -11l26 -8l20 5q6 1 20 12l19 38zM727 163q-40 14 -50 21l-34 35v159l2 120l6 86l9 58l12 34l14 19
l19 7h22v38h-217l2 -37l17 -1l15 -3l10 -5l12 -13l9 -21l8 -31l6 -45l3 -60l4 -63l1 -209l-317 421q-8 17 -13 28t-7 17l-6 46l-75 -8l-72 -22l-29 -18l-29 -21l-18 -27l-14 -27q40 -13 50 -19q16 -10 37 -37l-1 -162l-2 -125l-5 -96l-7 -69l-10 -52l-12 -26l-14 -14l-16 -5
l-20 -1v-33h216l1 34h-15l-16 3l-11 5l-10 11l-9 20l-7 27l-6 37l-8 122l-4 307l390 -550l21 -31q3 -4 17 -48l13 41l17 34l26 40l31 42z" />
    <glyph glyph-name="Ograve" unicode="&#xd2;" horiz-adv-x="804" 
d="M462 825l-45 172h-172zM786 381l-3 81l-9 47l-9 31l-43 87l-22 27l-30 33l-31 23l-38 23q-28 11 -29 11l-74 21l-104 3l-57 -20l-48 -23q-14 -14 -22 -22.5t-10 -11.5l-24 -37l-6 -37v-48l14 -35q4 -11 27 -40q17 -16 30 -20l33 -13l30 -3l33 4l25 13l22 17l-26 -2l-31 7
l-14 17l-5 22l11 27l15 19l31 15q14 5 24.5 7.5t16.5 3.5h38l33 -1l36 -4q21 -8 32.5 -13t13.5 -7l33 -18q20 -20 29 -33l21 -29l14 -43l9 -35l-1 -47l-6 -47l-12 -37l-20 -40l-24 -31l-33 -34q-21 -16 -34 -20l-45 -20l-42 -7h-58l-58 16l-43 18l-46 27l-33 27l-26 29
l-28 41l-16 38l-18 57l-7 47v50l4 52l11 51l15 51l22 56l-46 -28l-38 -28l-30 -29l-33 -40l-20 -34l-20 -43l-10 -36l-9 -46v-29l1 -27v-28l6 -36l12 -45l28 -62l25 -39l23 -29l29 -28l34 -30l43 -25l36 -15l50 -14l39 -7h54l49 1l48 11l65 19l42 19l29 18l35 30l34 37
l19 27l24 41l29 76l9 49z" />
    <glyph glyph-name="Oacute" unicode="&#xd3;" horiz-adv-x="803" 
d="M623 997h-172l-42 -172zM785 381l-3 81l-9 47l-9 31l-43 87l-22 27l-30 33l-31 23l-38 23q-28 11 -29 11l-74 21l-104 3l-57 -20l-48 -23q-14 -14 -22 -22.5t-10 -11.5l-24 -37l-6 -37v-48l14 -35q4 -11 27 -40q17 -16 30 -20l33 -13l30 -3l33 4l25 13l22 17l-26 -2
l-31 7l-14 17l-5 22l11 27l15 19l31 15q14 5 24.5 7.5t16.5 3.5h38l33 -1l36 -4q21 -8 32.5 -13t13.5 -7l33 -18q20 -20 29 -33l21 -29l14 -43l9 -35l-1 -47l-6 -47l-12 -37l-20 -40l-24 -31l-33 -34q-21 -16 -34 -20l-45 -20l-42 -7h-58l-58 16l-43 18l-46 27l-33 27
l-26 29l-28 41l-16 38l-18 57l-7 47v50l4 52l11 51l15 51l22 56l-46 -28l-38 -28l-30 -29l-33 -40l-20 -34l-20 -43l-10 -36l-9 -46v-29l1 -27v-28l6 -36l12 -45l28 -62l25 -39l23 -29l29 -28l34 -30l43 -25l36 -15l50 -14l39 -7h54l49 1l48 11l65 19l42 19l29 18l35 30
l34 37l19 27l24 41l29 76l9 49z" />
    <glyph glyph-name="Ocircumflex" unicode="&#xd4;" horiz-adv-x="804" 
d="M545 825l-97 172h-67l-96 -172l130 92zM786 381l-3 81l-9 47l-9 31l-43 87l-22 27l-30 33l-31 23l-38 23q-28 11 -29 11l-74 21l-104 3l-57 -20l-48 -23q-14 -14 -22 -22.5t-10 -11.5l-24 -37l-6 -37v-48l14 -35q4 -11 27 -40q17 -16 30 -20l33 -13l30 -3l33 4l25 13
l22 17l-26 -2l-31 7l-14 17l-5 22l11 27l15 19l31 15q14 5 24.5 7.5t16.5 3.5h38l33 -1l36 -4q21 -8 32.5 -13t13.5 -7l33 -18q20 -20 29 -33l21 -29l14 -43l9 -35l-1 -47l-6 -47l-12 -37l-20 -40l-24 -31l-33 -34q-21 -16 -34 -20l-45 -20l-42 -7h-58l-58 16l-43 18l-46 27
l-33 27l-26 29l-28 41l-16 38l-18 57l-7 47v50l4 52l11 51l15 51l22 56l-46 -28l-38 -28l-30 -29l-33 -40l-20 -34l-20 -43l-10 -36l-9 -46v-29l1 -27v-28l6 -36l12 -45l28 -62l25 -39l23 -29l29 -28l34 -30l43 -25l36 -15l50 -14l39 -7h54l49 1l48 11l65 19l42 19l29 18
l35 30l34 37l19 27l24 41l29 76l9 49z" />
    <glyph glyph-name="Otilde" unicode="&#xd5;" horiz-adv-x="804" 
d="M577 964l-31 -21q-4 -4 -32 -10l-27 2l-29 11l-30 15l-25 16l-25 12q-10 4 -16 5.5t-8 2.5l-20 -2l-21 -12l-19 -38l-15 -47l29 18q9 5 34 11l28 -6l26 -8l54 -32l24 -11l26 -8l20 5q6 1 20 12l19 38zM786 381l-3 81l-9 47l-9 31l-43 87l-22 27l-30 33l-31 23l-38 23
q-28 11 -29 11l-74 21l-104 3l-57 -20l-48 -23q-14 -14 -22 -22.5t-10 -11.5l-24 -37l-6 -37v-48l14 -35q4 -11 27 -40q17 -16 30 -20l33 -13l30 -3l33 4l25 13l22 17l-26 -2l-31 7l-14 17l-5 22l11 27l15 19l31 15q14 5 24.5 7.5t16.5 3.5h38l33 -1l36 -4q21 -8 32.5 -13
t13.5 -7l33 -18q20 -20 29 -33l21 -29l14 -43l9 -35l-1 -47l-6 -47l-12 -37l-20 -40l-24 -31l-33 -34q-21 -16 -34 -20l-45 -20l-42 -7h-58l-58 16l-43 18l-46 27l-33 27l-26 29l-28 41l-16 38l-18 57l-7 47v50l4 52l11 51l15 51l22 56l-46 -28l-38 -28l-30 -29l-33 -40
l-20 -34l-20 -43l-10 -36l-9 -46v-29l1 -27v-28l6 -36l12 -45l28 -62l25 -39l23 -29l29 -28l34 -30l43 -25l36 -15l50 -14l39 -7h54l49 1l48 11l65 19l42 19l29 18l35 30l34 37l19 27l24 41l29 76l9 49z" />
    <glyph glyph-name="Odieresis" unicode="&#xd6;" horiz-adv-x="805" 
d="M641 912l-8 29l-15 30l-29 18q-5 4 -36 10l-38 -10l-29 -18l-15 -29l-7 -30l6 -27l16 -33l29 -17l38 -9l36 9l29 17l15 29q2 4 4 11.5t4 19.5zM397 912l-7 30l-14 29q-22 16 -29 17q-12 5 -21 7.5t-15 3.5l-38 -10l-28 -18l-17 -30l-4 -29l6 -32l15 -28l28 -17l38 -9
l36 9l29 17l17 35zM786 381l-3 81l-9 47l-9 31l-43 87l-22 27l-30 33l-31 23l-38 23q-28 11 -29 11l-74 21l-104 3l-57 -20l-48 -23q-14 -14 -22 -22.5t-10 -11.5l-24 -37l-6 -37v-48l14 -35q4 -11 27 -40q17 -16 30 -20l33 -13l30 -3l33 4l25 13l22 17l-26 -2l-31 7l-14 17
l-5 22l11 27l15 19l31 15q14 5 24.5 7.5t16.5 3.5h38l33 -1l36 -4q21 -8 32.5 -13t13.5 -7l33 -18q20 -20 29 -33l21 -29l14 -43l9 -35l-1 -47l-6 -47l-12 -37l-20 -40l-24 -31l-33 -34q-21 -16 -34 -20l-45 -20l-42 -7h-58l-58 16l-43 18l-46 27l-33 27l-26 29l-28 41
l-16 38l-18 57l-7 47v50l4 52l11 51l15 51l22 56l-46 -28l-38 -28l-30 -29l-33 -40l-20 -34l-20 -43l-10 -36l-9 -46v-29l1 -27v-28l6 -36l12 -45l28 -62l25 -39l23 -29l29 -28l34 -30l43 -25l36 -15l50 -14l39 -7h54l49 1l48 11l65 19l42 19l29 18l35 30l34 37l19 27l24 41
l29 76l9 49z" />
    <glyph glyph-name="multiply" unicode="&#xd7;" horiz-adv-x="772" 
d="M100 491l169 -169l-170 -170l120 -120l170 171l168 -168l121 120l-168 169l170 169l-120 120l-170 -170l-169 169z" />
    <glyph glyph-name="Oslash" unicode="&#xd8;" horiz-adv-x="843" 
d="M656 559q7 -8 12.5 -14.5t10.5 -12.5l21 -29l14 -43l9 -35l-1 -47l-6 -47l-12 -37l-20 -40l-24 -31l-33 -34q-21 -16 -34 -20l-45 -20l-42 -7h-58l-58 16l-43 18l-27 16zM141 -2l53 57l26 -15l36 -15l50 -14l39 -7h54l49 1l48 11l65 19l42 19l29 18l35 30l34 37l19 27
l24 41l29 76l9 49l5 49l-3 81l-9 47l-9 31l-43 87l-2 3l126 138l-95 1l-78 -86l-3 4l-31 23l-38 23q-28 11 -29 11l-74 21l-104 3l-57 -20l-48 -23q-14 -14 -22 -22.5t-10 -11.5l-24 -37l-6 -37v-48l14 -35q4 -11 27 -40q17 -16 30 -20l33 -13l30 -3l33 4l25 13l22 17
l-26 -2l-31 7l-14 17l-5 22l11 27l15 19l31 15q14 5 24.5 7.5t16.5 3.5h38l33 -1l36 -4l22 -9l-329 -360l-22 25l-28 41l-16 38l-18 57l-7 47v50l4 52l11 51l15 51l22 56l-46 -28l-38 -28l-30 -29l-33 -40l-20 -34l-20 -43l-10 -36l-9 -46v-29l1 -27v-28l6 -36l12 -45
l28 -62l25 -39l23 -29l26 -25l-93 -100h94z" />
    <glyph glyph-name="Ugrave" unicode="&#xd9;" horiz-adv-x="706" 
d="M460 825l-45 172h-172zM688 431l-1 73l-5 57l-8 52l-13 52l-15 34l-19 26l-20 9l-115 -86l17 -11l21 -16l16 -18l16 -21l17 -31l13 -30l19 -77l3 -87l-13 -109l-16 -39l-24 -36q-14 -11 -21.5 -16.5t-9.5 -6.5q-11 -8 -31 -16l-42 -10l-37 -1l-38 7l-37 13l-27 19l-23 26
l-15 40q-3 13 -3 40l-1 398q16 33 24 43q9 10 39 24v38l-321 -105v-33l24 -1l24 -5q8 -12 10 -20l6 -29l-1 -356l9 -52l12 -38l24 -37l24 -29l36 -24l33 -18l45 -13q8 -4 37 -7h40l26 1l34 3l39 9l47 16l35 18l43 29l17 17t18 20l24 29l19 36l19 50l12 61l10 75z" />
    <glyph glyph-name="Uacute" unicode="&#xda;" horiz-adv-x="706" 
d="M621 997h-172l-42 -172zM687 431l-1 73l-5 57l-8 52l-13 52l-15 34l-19 26l-20 9l-115 -86l17 -11l21 -16l16 -18l16 -21l17 -31l13 -30l19 -77l3 -87l-13 -109l-16 -39l-24 -36q-14 -11 -21.5 -16.5t-9.5 -6.5q-11 -8 -31 -16l-42 -10l-37 -1l-38 7l-37 13l-27 19
l-23 26l-15 40q-3 13 -3 40l-1 398q16 33 24 43q9 10 39 24v38l-321 -105v-33l24 -1l24 -5q8 -12 10 -20l6 -29l-1 -356l9 -52l12 -38l24 -37l24 -29l36 -24l33 -18l45 -13q8 -4 37 -7h40l26 1l34 3l39 9l47 16l35 18l43 29l17 17t18 20l24 29l19 36l19 50l12 61l10 75z" />
    <glyph glyph-name="Ucircumflex" unicode="&#xdb;" horiz-adv-x="706" 
d="M520 825l-97 172h-67l-96 -172l130 92zM688 431l-1 73l-5 57l-8 52l-13 52l-15 34l-19 26l-20 9l-115 -86l17 -11l21 -16l16 -18l16 -21l17 -31l13 -30l19 -77l3 -87l-13 -109l-16 -39l-24 -36q-14 -11 -21.5 -16.5t-9.5 -6.5q-11 -8 -31 -16l-42 -10l-37 -1l-38 7
l-37 13l-27 19l-23 26l-15 40q-3 13 -3 40l-1 398q16 33 24 43q9 10 39 24v38l-321 -105v-33l24 -1l24 -5q8 -12 10 -20l6 -29l-1 -356l9 -52l12 -38l24 -37l24 -29l36 -24l33 -18l45 -13q8 -4 37 -7h40l26 1l34 3l39 9l47 16l35 18l43 29l17 17t18 20l24 29l19 36l19 50
l12 61l10 75z" />
    <glyph glyph-name="Udieresis" unicode="&#xdc;" horiz-adv-x="707" 
d="M628 912l-8 29l-15 30l-30 18q-5 4 -36 10l-37 -10l-29 -18l-15 -29l-7 -30l6 -27l16 -33l28 -17l38 -9l37 9l29 17l15 29q2 4 4 11.5t4 19.5zM384 912l-7 30l-15 29q-22 16 -28 17l-38 9l2 2l-38 -10l-28 -18l-16 -30q-3 -4 -6 -29l7 -32q1 -8 15 -28l28 -17l38 -9l35 9
l29 17l16 29zM688 431l-1 73l-5 57l-8 52l-13 52l-15 34l-19 26l-20 9l-115 -86l17 -11l21 -16l16 -18l16 -21l17 -31l13 -30l19 -77l3 -87l-13 -109l-16 -39l-24 -36q-14 -11 -21.5 -16.5t-9.5 -6.5q-11 -8 -31 -16l-42 -10l-37 -1l-38 7l-37 13l-27 19l-23 26l-15 40
q-3 13 -3 40l-1 398q16 33 24 43q9 10 39 24v38l-321 -105v-33l24 -1l24 -5q8 -12 10 -20l6 -29l-1 -356l9 -52l12 -38l24 -37l24 -29l36 -24l33 -18l45 -13q8 -4 37 -7h40l26 1l34 3l39 9l47 16l35 18l43 29l17 17t18 20l24 29l19 36l19 50l12 61l10 75z" />
    <glyph glyph-name="Yacute" unicode="&#xdd;" horiz-adv-x="785" 
d="M621 997h-172l-42 -172zM769 747l-70 -5l-50 -9l-42 -9l-45 -16l-43 -17q10 -10 18 -25l1 -16v-28l-12 -52l-29 -64l-44 -66l-160 229l-11 19l-7 24l4 22l12 18l-70 -1l-80 -13l-72 -23l-29 -15l-24 -17l23 -8l24 -14q7 -7 11.5 -13t8.5 -11q4 -4 8.5 -10.5t11.5 -16.5
l173 -264l1 -243l-5 -37l-9 -22l-20 -8l-26 -1v-33h322l2 34l-24 1l-20 7q-5 8 -7 14t-3 8l-6 36v277z" />
    <glyph glyph-name="Thorn" unicode="&#xde;" horiz-adv-x="769" 
d="M384 36l-36 3q-15 8 -22 17q-6 8 -8 121q-2 80 0 215q1 85 1 120q0 36 0 22q52 -3 77.5 -4.5l25.5 -1.5q8 -2 34 -13q121 -52 121 -171q0 -44 -26 -79q-58 -50 -111 -50q-51 0 -107 25q130 -108 191 -108q55 0 79 7q3 1 12 5t23 11q31 14 35 18q25 19 50 57q29 44 29 72
q0 21 -1.5 42t-3.5 41q-1 11 -22 49q-55 98 -175 133q-83 24 -230 21q4 55 38 79q-3 1 -13.5 2.5t-27.5 4.5q-13 2 -23 3t-18 1h-111q-25 0 10 1q-61 -2 -98 -12q-37 -20 -59 -42q43 1 88 -14q19 -28 19 -43l1 -465q0 -36 -16 -59q-22 -12 -49 -9v-33h322z" />
    <glyph glyph-name="germandbls" unicode="&#xdf;" horiz-adv-x="640" 
d="M622 288l-9 40l-15 41l-28 38l-34 37q-37 28 -49 34l-57 30q23 13 37 21t20 13q18 13 45 46q4 17 6 28.5t2 17.5l-4 35l-21 25l-22 21l-32 16l-30 12l-77 9l-42 -3q-5 -1 -10 -1q-4 0 -7 -1h-36l-84 -17l-77 -25l-32 -16l-31 -16q24 -22 31 -33q3 -5 7 -16t9 -28l1 -493
l-6 -37l-11 -22l-27 -9h-21v-33h300l1 34q-40 0 -56 22q-9 27 -9 50l1 511q0 24 3 32l9 25l13 13l17 9l34 -9l17 -18l13 -20q9 -26 9 -34l4 -32l-6 -47l-12 -42l-27 -39l-37 -37q47 -11 56 -15l34 -15l31 -35q4 -4 10 -14t16 -27q10 -27 11 -44q7 -17 7 -51l-9 -45l-13 -44
l-39 -81l-33 -71l-5 -22q-3 -12 -3 -23l-1 -39q7 -20 12 -34t9 -22l19 -37l7 49l14 49l18 37l21 34l53 63l25 26l27 33l39 54l13 35q5 13 7 33l4 51v23z" />
    <glyph glyph-name="agrave" unicode="&#xe0;" 
d="M302 578l-45 173h-172zM591 3l-27 15l-22 22l-12 30l-5 32l1 245q0 21 -3 35l-10 42l-20 24l-23 25q-14 8 -23 12.5l-13 6.5l-34 13q-27 7 -43 7l-41 5l-79 -5l-44 -11l-33 -10q-21 -7 -31 -7l-32 -1l-32 9l-28 15l6 -47l13 -42l21 -25l25 -17l28 -3l28 3l27 19l26 25
l12 15l19 18l26 10l29 6l27 -4l26 -11l15 -27q2 -4 4 -13t4 -23l1 -63l-102 2l-44 -7l-37 -7l-42 -16l-31 -14l-28 -20l-28 -24l-17 -25l-15 -24q-4 -13 -5.5 -22.5t-2.5 -15.5l-3 -24l4 -22l6 -21l27 -38l24 -18l25 -13l33 -9q28 -5 37 -5l40 2l43 7l58 20l57 23
q15 -28 27 -37q7 -6 42 -18zM374 280l-1 -176l-49 -15l-36 -4l-35 5l-27 10l-20 16l-16 22l-6 23v30l13 27l15 20l25 16l37 17l64 9h36z" />
    <glyph glyph-name="aacute" unicode="&#xe1;" horiz-adv-x="607" 
d="M491 751h-173l-41 -173zM589 3l-27 15l-22 22l-12 30l-5 32l1 245q0 21 -3 35l-10 42l-20 24l-23 25q-14 8 -23 12.5l-13 6.5l-34 13q-27 7 -43 7l-41 5l-79 -5l-44 -11l-33 -10q-21 -7 -31 -7l-32 -1l-32 9l-28 15l6 -47l13 -42l21 -25l25 -17l28 -3l28 3l27 19l26 25
l12 15l19 18l26 10l29 6l27 -4l26 -11l15 -27q2 -4 4 -13t4 -23l1 -63l-102 2l-44 -7l-37 -7l-42 -16l-31 -14l-28 -20l-28 -24l-17 -25l-15 -24q-4 -13 -5.5 -22.5t-2.5 -15.5l-3 -24l4 -22l6 -21l27 -38l24 -18l25 -13l33 -9q28 -5 37 -5l40 2l43 7l58 20l57 23
q15 -28 27 -37q7 -6 42 -18zM372 280l-1 -176l-49 -15l-36 -4l-35 5l-27 10l-20 16l-16 22l-6 23v30l13 27l15 20l25 16l37 17l64 9h36z" />
    <glyph glyph-name="acircumflex" unicode="&#xe2;" 
d="M424 578l-97 173h-66l-97 -173l130 93zM590 3l-27 15l-22 22l-12 30l-5 32l1 245q0 21 -3 35l-10 42l-20 24l-23 25q-14 8 -23 12.5l-13 6.5l-34 13q-27 7 -43 7l-41 5l-79 -5l-44 -11l-33 -10q-21 -7 -31 -7l-32 -1l-32 9l-28 15l6 -47l13 -42l21 -25l25 -17l28 -3l28 3
l27 19l26 25l12 15l19 18l26 10l29 6l27 -4l26 -11l15 -27q2 -4 4 -13t4 -23l1 -63l-102 2l-44 -7l-37 -7l-42 -16l-31 -14l-28 -20l-28 -24l-17 -25l-15 -24q-4 -13 -5.5 -22.5t-2.5 -15.5l-3 -24l4 -22l6 -21l27 -38l24 -18l25 -13l33 -9q28 -5 37 -5l40 2l43 7l58 20
l57 23q15 -28 27 -37q7 -6 42 -18zM373 280l-1 -176l-49 -15l-36 -4l-35 5l-27 10l-20 16l-16 22l-6 23v30l13 27l15 20l25 16l37 17l64 9h36z" />
    <glyph glyph-name="atilde" unicode="&#xe3;" 
d="M391 633l19 38q5 11 6 16l11 31l-31 -21q-4 -4 -32 -10l-28 2l-27 10l-30 15l-25 16l-25 12l-25 9l-20 -4l-20 -11l-20 -37l-15 -47l30 18q8 5 34 11l28 -6l26 -8l54 -32l23 -11l26 -9l20 5zM590 3l-27 15l-22 22l-12 30l-5 32l1 245q0 21 -3 35l-10 42l-20 24l-23 25
q-14 8 -23 12.5l-13 6.5l-34 13q-27 7 -43 7l-41 5l-79 -5l-44 -11l-33 -10q-21 -7 -31 -7l-32 -1l-32 9l-28 15l6 -47l13 -42l21 -25l25 -17l28 -3l28 3l27 19l26 25l12 15l19 18l26 10l29 6l27 -4l26 -11l15 -27q2 -4 4 -13t4 -23l1 -63l-102 2l-44 -7l-37 -7l-42 -16
l-31 -14l-28 -20l-28 -24l-17 -25l-15 -24q-4 -13 -5.5 -22.5t-2.5 -15.5l-3 -24l4 -22l6 -21l27 -38l24 -18l25 -13l33 -9q28 -5 37 -5l40 2l43 7l58 20l57 23q15 -28 27 -37q7 -6 42 -18zM373 280l-1 -176l-49 -15l-36 -4l-35 5l-27 10l-20 16l-16 22l-6 23v30l13 27
l15 20l25 16l37 17l64 9h36z" />
    <glyph glyph-name="adieresis" unicode="&#xe4;" horiz-adv-x="609" 
d="M499 666l-8 29l-15 30q-24 16 -30 17l-37 9l-38 -9l-28 -17l-15 -29l-7 -30l6 -27l16 -33l29 -17l38 -9l37 9l29 17l15 29q2 4 4 11.5t4 19.5zM255 666l-7 30l-15 29q-22 16 -28 17l-38 9l-37 -10l-27 -16l-16 -30q-3 -4 -6 -29l7 -32q1 -8 15 -28q18 -13 28 -17l37 -9
l36 9l29 17l16 29zM591 3l-27 15l-22 22l-12 30l-5 32l1 245q0 21 -3 35l-10 42l-20 24l-23 25q-14 8 -23 12.5l-13 6.5l-34 13q-27 7 -43 7l-41 5l-79 -5l-44 -11l-33 -10q-21 -7 -31 -7l-32 -1l-32 9l-28 15l6 -47l13 -42l21 -25l25 -17l28 -3l28 3l27 19l26 25l12 15
l19 18l26 10l29 6l27 -4l26 -11l15 -27q2 -4 4 -13t4 -23l1 -63l-102 2l-44 -7l-37 -7l-42 -16l-31 -14l-28 -20l-28 -24l-17 -25l-15 -24q-4 -13 -5.5 -22.5t-2.5 -15.5l-3 -24l4 -22l6 -21l27 -38l24 -18l25 -13l33 -9q28 -5 37 -5l40 2l43 7l58 20l57 23q15 -28 27 -37
q7 -6 42 -18zM374 280l-1 -176l-49 -15l-36 -4l-35 5l-27 10l-20 16l-16 22l-6 23v30l13 27l15 20l25 16l37 17l64 9h36z" />
    <glyph glyph-name="aring" unicode="&#xe5;" 
d="M385 666l-8 29l-15 30l-31 17l-38 9l-39 -9l-29 -17l-16 -29l-7 -30l7 -31l7.5 -15t8.5 -14q14 -9 19 -11l11 -6l39 -9l38 9l30 17l15 29q2 4 4 11.5t4 19.5zM590 3l-27 15l-22 22l-12 30l-5 32l1 245q0 21 -3 35l-10 42l-20 24l-23 25q-14 8 -23 12.5l-13 6.5l-34 13
q-27 7 -43 7l-41 5l-79 -5l-44 -11l-33 -10q-21 -7 -31 -7l-32 -1l-32 9l-28 15l6 -47l13 -42l21 -25l25 -17l28 -3l28 3l27 19l26 25l12 15l19 18l26 10l29 6l27 -4l26 -11l15 -27q2 -4 4 -13t4 -23l1 -63l-102 2l-44 -7l-37 -7l-42 -16l-31 -14l-28 -20l-28 -24l-17 -25
l-15 -24q-4 -13 -5.5 -22.5t-2.5 -15.5l-3 -24l4 -22l6 -21l27 -38l24 -18l25 -13l33 -9q28 -5 37 -5l40 2l43 7l58 20l57 23q15 -28 27 -37q7 -6 42 -18zM338 644l-19 -14l-26 -9l-27 8l-17 15l-4 22v8l4 14l19 14l26 9l25 -10l19 -13l4 -22zM373 280l-1 -176l-49 -15
l-36 -4l-35 5l-27 10l-20 16l-16 22l-6 23v30l13 27l15 20l25 16l37 17l64 9h36z" />
    <glyph glyph-name="ae" unicode="&#xe6;" horiz-adv-x="951" 
d="M375 280l-1 -176l-49 -15l-36 -4l-35 5l-27 10l-20 16l-16 22l-6 23v30l13 27l15 20l25 16l37 17l64 9h36zM932 186l-29 16l-49 -27l-48 -25l-42 -15l-46 -10h-69l-34 8l-25 10l-22 17l-16 20l89 36l84 44l69 43l33 25l24 21l23 22l16 20l-28 35l-26 27l-34 19l-39 19
l-44 11l-38 6h-16l-32 -1l-36 -3l-47 -14l-43 -16l-31 -19l-1 -1l-4 19q-14 8 -23 12.5l-13 6.5l-34 13q-27 7 -43 7l-41 5l-79 -5l-44 -11l-33 -10q-21 -7 -31 -7l-32 -1l-32 9l-28 15l6 -47l13 -42l21 -25l25 -17l28 -3l28 3l27 19l26 25l12 15l19 18l26 10l29 6l27 -4
l26 -11l15 -27q2 -4 4 -13t4 -23l1 -63l-102 2l-44 -7l-37 -7l-42 -16l-31 -14l-28 -20l-28 -24l-17 -25l-15 -24l-6 -21q-1 -6 -1 -11q0 -4 -1 -6l-3 -24l4 -22l6 -21l27 -38l24 -18l25 -13l33 -9q28 -5 37 -5l40 2l43 7l58 20l57 23q15 -28 27 -37q7 -6 42 -18l149 1l-3 1
h47l28 1l43 9l40 12l38 17l38 22l34 26l30 28l22 30zM726 362l-9 -19l-13 -19l-20 -19l-22 -18l-32 -19l-32 -15l-74 -23l-14 38l-11 38v68l7 26l10 25l12 15l15 13l42 6l15 -1h18l35 -15l31 -16l32 -33l8 -12q2 -8 2 -20z" />
    <glyph glyph-name="ccedilla" unicode="&#xe7;" horiz-adv-x="542" 
d="M524 192q-13 -8 -24 -14.5t-21 -11.5l-47 -24l-39 -11l-37 -6h-36l-37 6l-30 13l-30 15l-23 20l-20 22l-19 35l-11 25l-10 43q-1 5 -1.5 14.5t-0.5 24.5l5 32l10 31l18 21l25 20l34 12q7 2 40 8l53 -11l41 -23q8 -17 13 -28t6 -16q3 -9 3 -45l31 18l27 22l20 32l17 37
q1 9 1.5 14t0.5 7v30l-1 28l-26 -18l-26 -11h-24l-30 3l-63 11h-11l-28 -1h-41l-52 -13l-35 -13l-37 -26l-28 -25l-25 -37l-17 -31l-13 -42l-8 -36v-27l1 -33l2 -32l10 -34l17 -42l25 -36l23 -26l29 -22l42 -22q13 -4 23 -6.5t18 -3.5l53 -6l51 4l42 9l37 17l40 22l30 27
l28 33l19 38zM360 -91l-2 33l-9 32q-21 19 -27 21l-35 10l-50 -1l28 -18l21 -25q9 -21 9 -27l4 -26l-8 -24l-10 -22l-20 -14q-1 -3 -21 -11l45 2l38 13l22 27q6 7 15 30z" />
    <glyph glyph-name="egrave" unicode="&#xe8;" horiz-adv-x="590" 
d="M304 578l-45 173h-172zM573 186l-29 16l-49 -27l-48 -25l-42 -15l-46 -10h-69l-34 8l-25 10l-22 17l-16 20l89 36l84 44l69 43l33 25l24 21l23 22l16 20l-28 35l-26 27l-34 19l-39 19l-44 11l-38 6h-16l-32 -1l-36 -3l-47 -14l-43 -16l-31 -19l-34 -28l-23 -29l-22 -39
l-11 -36l-9 -50q0 -33 3 -45l14 -58l23 -45l23 -39l30 -30l34 -24l38 -15q5 -2 11 -4t11 -3q22 -5 27 -6h45l28 1l43 9l40 12l38 17l38 22l34 26l30 28l22 30zM367 362l-9 -19l-13 -19l-20 -19l-22 -18l-32 -19l-32 -15l-74 -23l-14 38l-11 38v68l7 26l10 25l12 15l15 13
l42 6l15 -1h18l35 -15l31 -16l32 -33l8 -12q2 -8 2 -20z" />
    <glyph glyph-name="eacute" unicode="&#xe9;" horiz-adv-x="589" 
d="M465 751h-172l-42 -173zM572 186l-29 16l-49 -27l-48 -25l-42 -15l-46 -10h-69l-34 8l-25 10l-22 17l-16 20l89 36l84 44l69 43l33 25l24 21l23 22l16 20l-28 35l-26 27l-34 19l-39 19l-44 11l-38 6h-16l-32 -1l-36 -3l-47 -14l-43 -16l-31 -19l-34 -28l-23 -29l-22 -39
l-11 -36l-9 -50q0 -33 3 -45l14 -58l23 -45l23 -39l30 -30l34 -24l38 -15q5 -2 11 -4t11 -3q22 -5 27 -6h45l28 1l43 9l40 12l38 17l38 22l34 26l30 28l22 30zM366 362l-9 -19l-13 -19l-20 -19l-22 -18l-32 -19l-32 -15l-74 -23l-14 38l-11 38v68l7 26l10 25l12 15l15 13
l42 6l15 -1h18l35 -15l31 -16l32 -33l8 -12q2 -8 2 -20z" />
    <glyph glyph-name="ecircumflex" unicode="&#xea;" horiz-adv-x="590" 
d="M404 578l-97 173h-66l-97 -173l130 93zM573 186l-29 16l-49 -27l-48 -25l-42 -15l-46 -10h-69l-34 8l-25 10l-22 17l-16 20l89 36l84 44l69 43l33 25l24 21l23 22l16 20l-28 35l-26 27l-34 19l-39 19l-44 11l-38 6h-16l-32 -1l-36 -3l-47 -14l-43 -16l-31 -19l-34 -28
l-23 -29l-22 -39l-11 -36l-9 -50q0 -33 3 -45l14 -58l23 -45l23 -39l30 -30l34 -24l38 -15q5 -2 11 -4t11 -3q22 -5 27 -6h45l28 1l43 9l40 12l38 17l38 22l34 26l30 28l22 30zM367 362l-9 -19l-13 -19l-20 -19l-22 -18l-32 -19l-32 -15l-74 -23l-14 38l-11 38v68l7 26
l10 25l12 15l15 13l42 6l15 -1h18l35 -15l31 -16l32 -33l8 -12q2 -8 2 -20z" />
    <glyph glyph-name="edieresis" unicode="&#xeb;" horiz-adv-x="592" 
d="M484 666l-8 29l-15 30q-28 17 -29 18l-37 8l-38 -9l-28 -17l-15 -29l-7 -30l6 -27l16 -33l29 -17l38 -9l36 9l29 17l15 29q2 4 4 11.5t4 19.5zM240 666l-7 30l-14 29q-22 16 -28 17l-38 9l-37 -9l-28 -17l-17 -30l-4 -29l6 -32l15 -28l28 -17l38 -9l36 9l29 17l17 35z
M574 186l-29 16l-49 -27l-48 -25l-42 -15l-46 -10h-69l-34 8l-25 10l-22 17l-16 20l89 36l84 44l69 43l33 25l24 21l23 22l16 20l-28 35l-26 27l-34 19l-39 19l-44 11l-38 6h-16l-32 -1l-36 -3l-47 -14l-43 -16l-31 -19l-34 -28l-23 -29l-22 -39l-11 -36l-9 -50q0 -33 3 -45
l14 -58l23 -45l23 -39l30 -30l34 -24l38 -15q5 -2 11 -4t11 -3q22 -5 27 -6h45l28 1l43 9l40 12l38 17l38 22l34 26l30 28l22 30zM368 362l-9 -19l-13 -19l-20 -19l-22 -18l-32 -19l-32 -15l-74 -23l-14 38l-11 38v68l7 26l10 25l12 15l15 13l42 6l15 -1h18l35 -15l31 -16
l32 -33l8 -12q2 -8 2 -20z" />
    <glyph glyph-name="igrave" unicode="&#xec;" horiz-adv-x="360" 
d="M231 578l-44 173h-170zM343 36l-36 3l-12 6l-9 11l-5 18l-2 445l-71 -12l-88 -29l-40 -20l-37 -22l34 -4l22 -17l6 -20l2 -292l-6 -37l-11 -22l-27 -9h-21v-33h300z" />
    <glyph glyph-name="iacute" unicode="&#xed;" horiz-adv-x="386" 
d="M369 751h-173l-41 -173zM318 36l-36 3l-12 6l-9 11l-5 18l-2 445l-71 -12l-88 -29l-40 -20l-37 -22l34 -4l22 -17l6 -20l2 -292l-6 -37l-11 -22l-27 -9h-21v-33h300z" />
    <glyph glyph-name="icircumflex" unicode="&#xee;" horiz-adv-x="341" 
d="M278 578l-97 173h-66l-97 -173l130 93zM324 36l-36 3l-12 6l-9 11l-5 18l-2 445l-71 -12l-88 -29l-40 -20l-37 -22l34 -4l22 -17l6 -20l2 -292l-6 -37l-11 -22l-27 -9h-21v-33h300z" />
    <glyph glyph-name="idieresis" unicode="&#xef;" horiz-adv-x="452" 
d="M434 666l-8 29l-15 30q-28 17 -29 18l-37 8l-38 -9l-28 -17l-15 -29l-7 -30l6 -27l16 -33l29 -17l38 -9l36 9l29 17l15 29q2 4 4 11.5t4 19.5zM190 666l-7 30l-15 29q-22 15 -28 17l-37 9l-37 -10l-26 -16l-16 -30q-3 -4 -6 -29l7 -32q1 -8 15 -28q7 -5 13.5 -9t13.5 -8
l37 -9l35 9l29 17l16 29zM372 36l-36 3l-12 6l-9 11l-5 18l-2 445l-71 -12l-88 -29l-40 -20l-37 -22l34 -4l22 -17l6 -20l2 -292l-6 -37l-11 -22l-27 -9h-21v-33h300z" />
    <glyph glyph-name="eth" unicode="&#xf0;" horiz-adv-x="633" 
d="M378 436l-1 -290l-49 -25q-12 -6 -36 -12l-36 1l-25 6l-23 19l-14 20l-10 31l-6 29v13l1 24l6 43l9 31l16 37l23 31l19 22q18 13 28 17l28 11h17l23 -3zM135 837l-53 4l-7 -106l-53 -21l-11 -74l60 19l-5 -90l51 -5l7 112l39 12l207 -29l6 -20l2 -158q-19 8 -34 12l-21 6
q-25 4 -44 6l-49 -8l-38 -11l-42 -25l-32 -24l-27 -32q-36 -42 -51 -90l-16 -50l-6 -30q-1 -3 -1 -26v-32l8 -37l15 -43l22 -31l32 -31q26 -14 36 -17l55 -16l192 100v-100h236l1 34l-36 3l-12 6l-9 11l-14 647l-171 45l-207 23l-35 -14z" />
    <glyph glyph-name="ntilde" unicode="&#xf1;" horiz-adv-x="634" 
d="M458 718l-31 -21q-5 -4 -33 -10l-28 2l-27 10l-30 15l-25 16l-25 12l-25 9l-20 -4l-20 -11l-19 -37l-15 -47l29 18q9 5 34 11l28 -6l26 -8l54 -32l24 -11l26 -9l20 5l20 13l19 38zM617 250l-8 76l-11 31l-16 36l-21 29l-28 31l-35 21l-45 22l-200 -105l1 106l-70 -13
l-47 -15l-42 -14l-39 -21l-38 -24l35 -1q14 -7 21 -17l6 -21l2 -268l-6 -37l-11 -22l-27 -9h-21v-33h300l1 34h-18l-17 3q-13 7 -22 17l-5 18l-3 28v244l121 40q42 -39 68 -75l12 -34l6 -40l-7 -39l-11 -36l-37 -75l-21 -37l-18 -37l-16 -35l-11 -37v-29l1 -20l3 -24l21 -37
l29 -36l-4 23q-3 18 -2 22l3 36l14 30q2 6 8 13q9 13 13 16l25 24l86 74l25 37l21 39l15 30l13 49z" />
    <glyph glyph-name="ograve" unicode="&#xf2;" horiz-adv-x="557" 
d="M334 578l-45 173h-171zM539 262l-5 39l-5 32l-17 36l-20 41l-52 55l-35 20l-49 21l-35 7l-55 6l-55 -20l-31 -14l-29 -22l-21 -23q-11 -28 -11 -35v-19l9 -28l12 -26l19 -18l21 -14l22 -4q5 -1 9.5 -1.5t7.5 -0.5h13l29 9l31 16l-28 7l-20 11l-8 22l3 18l18 18q7 7 31 19
h44l65 -7q28 -15 31 -19l27 -24l15 -36q2 -12 3 -20.5t2 -13.5l-8 -38l-14 -37l-25 -29l-28 -24l-28 -12q-5 -2 -9 -3l-8 -2q-11 -4 -45 -7q-31 0 -41 3l-42 12l-33 18l-27 20l-29 29l-20 30l-13 27q-5 16 -8.5 26.5t-5.5 17.5l-2 27l1 40l12 37l13 33l-19 -11l-16 -12
l-17 -23l-14 -21l-13 -31l-8 -27l-10 -67l1 -45l5 -36l12 -34l14 -33l15 -22l31 -35l28 -21l41 -21q36 -13 52 -14l43 -6l52 4l45 9l50 21l36 21l28 26l24 28l18 34l18 43l7 36z" />
    <glyph glyph-name="oacute" unicode="&#xf3;" horiz-adv-x="556" 
d="M495 751h-172l-42 -173zM538 262l-5 39l-5 32l-17 36l-20 41l-52 55l-35 20l-49 21l-35 7l-55 6l-55 -20l-31 -14l-29 -22l-21 -23q-11 -28 -11 -35v-19l9 -28l12 -26l19 -18l21 -14l22 -4q5 -1 9.5 -1.5t7.5 -0.5h13l29 9l31 16l-28 7l-20 11l-8 22l3 18l18 18
q7 7 31 19h44l65 -7q28 -15 31 -19l27 -24l15 -36q2 -12 3 -20.5t2 -13.5l-8 -38l-14 -37l-25 -29l-28 -24l-28 -12q-5 -2 -9 -3l-8 -2q-11 -4 -45 -7q-31 0 -41 3l-42 12l-33 18l-27 20l-29 29l-20 30l-13 27q-5 16 -8.5 26.5t-5.5 17.5l-2 27l1 40l12 37l13 33l-19 -11
l-16 -12l-17 -23l-14 -21l-13 -31l-8 -27l-10 -67l1 -45l5 -36l12 -34l14 -33l15 -22l31 -35l28 -21l41 -21q36 -13 52 -14l43 -6l52 4l45 9l50 21l36 21l28 26l24 28l18 34l18 43l7 36z" />
    <glyph glyph-name="ocircumflex" unicode="&#xf4;" horiz-adv-x="557" 
d="M417 578l-97 173h-66l-97 -173l130 93zM539 262l-5 39l-5 32l-17 36l-20 41l-52 55l-35 20l-49 21l-35 7l-55 6l-55 -20l-31 -14l-29 -22l-21 -23q-11 -28 -11 -35v-19l9 -28l12 -26l19 -18l21 -14l22 -4q5 -1 9.5 -1.5t7.5 -0.5h13l29 9l31 16l-28 7l-20 11l-8 22l3 18
l18 18q7 7 31 19h44l65 -7q28 -15 31 -19l27 -24l15 -36q2 -12 3 -20.5t2 -13.5l-8 -38l-14 -37l-25 -29l-28 -24l-28 -12q-5 -2 -9 -3l-8 -2q-11 -4 -45 -7q-31 0 -41 3l-42 12l-33 18l-27 20l-29 29l-20 30l-13 27q-5 16 -8.5 26.5t-5.5 17.5l-2 27l1 40l12 37l13 33
l-19 -11l-16 -12l-17 -23l-14 -21l-13 -31l-8 -27l-10 -67l1 -45l5 -36l12 -34l14 -33l15 -22l31 -35l28 -21l41 -21q36 -13 52 -14l43 -6l52 4l45 9l50 21l36 21l28 26l24 28l18 34l18 43l7 36z" />
    <glyph glyph-name="otilde" unicode="&#xf5;" horiz-adv-x="557" 
d="M449 718l-31 -21q-4 -4 -32 -10l-28 2l-27 10l-30 15l-26 16l-49 21l-20 -4l-20 -11l-20 -37l-15 -47l29 18q9 5 34 11l28 -6l26 -8l55 -32l23 -11l26 -9l20 5l20 13l19 38zM539 262l-5 39l-5 32l-17 36l-20 41l-52 55l-35 20l-49 21l-35 7l-55 6l-55 -20l-31 -14
l-29 -22l-21 -23q-11 -28 -11 -35v-19l9 -28l12 -26l19 -18l21 -14l22 -4q5 -1 9.5 -1.5t7.5 -0.5h13l29 9l31 16l-28 7l-20 11l-8 22l3 18l18 18q7 7 31 19h44l65 -7q28 -15 31 -19l27 -24l15 -36q2 -12 3 -20.5t2 -13.5l-8 -38l-14 -37l-25 -29l-28 -24l-28 -12
q-5 -2 -9 -3l-8 -2q-11 -4 -45 -7q-31 0 -41 3l-42 12l-33 18l-27 20l-29 29l-20 30l-13 27q-5 16 -8.5 26.5t-5.5 17.5l-2 27l1 40l12 37l13 33l-19 -11l-16 -12l-17 -23l-14 -21l-13 -31l-8 -27l-10 -67l1 -45l5 -36l12 -34l14 -33l15 -22l31 -35l28 -21l41 -21
q36 -13 52 -14l43 -6l52 4l45 9l50 21l36 21l28 26l24 28l18 34l18 43l7 36z" />
    <glyph glyph-name="odieresis" unicode="&#xf6;" horiz-adv-x="559" 
d="M509 666l-8 29l-15 30q-24 16 -30 17l-37 9l-37 -9l-28 -17l-15 -29l-7 -30l6 -27l16 -33l28 -17l38 -9l37 9l29 17l15 29q2 4 4 11.5t4 19.5zM265 666l-7 30l-15 29q-22 16 -28 18l-36 9l-38 -10q-10 -4 -28 -17l-16 -30q-3 -4 -6 -29l7 -32q1 -8 15 -28l28 -17l38 -9
l35 9l29 17l16 29zM540 262l-5 39l-5 32l-17 36l-20 41l-52 55l-35 20l-49 21l-35 7l-55 6l-55 -20l-31 -14l-29 -22l-21 -23q-11 -28 -11 -35v-19l9 -28l12 -26l19 -18l21 -14l22 -4q5 -1 9.5 -1.5t7.5 -0.5h13l29 9l31 16l-28 7l-20 11l-8 22l3 18l18 18q7 7 31 19h44
l65 -7q28 -15 31 -19l27 -24l15 -36q2 -12 3 -20.5t2 -13.5l-8 -38l-14 -37l-25 -29l-28 -24l-28 -12q-5 -2 -9 -3l-8 -2q-11 -4 -45 -7q-31 0 -41 3l-42 12l-33 18l-27 20l-29 29l-20 30l-13 27q-5 16 -8.5 26.5t-5.5 17.5l-2 27l1 40l12 37l13 33l-19 -11l-16 -12l-17 -23
l-14 -21l-13 -31l-8 -27l-10 -67l1 -45l5 -36l12 -34l14 -33l15 -22l31 -35l28 -21l41 -21q36 -13 52 -14l43 -6l52 4l45 9l50 21l36 21l28 26l24 28l18 34l18 43l7 36z" />
    <glyph glyph-name="divide" unicode="&#xf7;" horiz-adv-x="423" 
d="M398 235v108h-378v-108h378zM122 489q0 -18 7 -33.5t19 -27t28 -18t34 -6.5q16 0 31.5 7t27.5 19t19 27t7 32q0 18 -7 33.5t-18.5 27.5t-27 19t-33.5 7t-33.5 -7t-27.5 -18.5t-19 -27.5t-7 -34zM122 87q0 -18 7 -33.5t19 -27.5t28 -19t34 -7q33 0 59 27q26 28 26 60
q0 17 -7 32.5t-18.5 27t-27 18.5t-33.5 7t-33.5 -6.5t-27.5 -18t-19 -27t-7 -33.5z" />
    <glyph glyph-name="oslash" unicode="&#xf8;" horiz-adv-x="618" 
d="M463 348l8 -20q2 -12 3 -20.5t2 -13.5l-8 -38l-14 -37l-25 -29l-28 -24l-28 -12q-5 -2 -9 -3l-8 -2q-11 -4 -45 -7q-11 0 -20 0.5t-14 1.5zM146 0l21 23q36 -13 51 -14l43 -6l52 4l45 9l50 21l36 21l28 26l24 28l18 34l18 43l7 36l1 37l-5 39l-5 32l-17 36l-11 22
l114 125l-95 1l-63 -70l-17 18l-35 20l-49 21l-35 7l-55 6l-55 -20l-31 -14l-29 -22l-21 -23q-11 -28 -11 -35v-19l9 -28l12 -26l19 -18l21 -14l22 -4q5 -1 9.5 -1.5t7.5 -0.5h13l29 9l31 16l-28 7l-20 11l-8 22l3 18l18 18q7 7 31 19h44l65 -7q11 -6 16 -8l-209 -229l-10 5
l-27 20l-29 29l-20 30l-13 27q-5 16 -8.5 26.5t-5.5 17.5l-2 27l1 40l12 37l13 33l-19 -11l-16 -12l-17 -23l-14 -21l-13 -31l-8 -27l-10 -67l1 -45l5 -36l12 -34l14 -33l15 -22l31 -35l7 -6l-54 -59h96z" />
    <glyph glyph-name="ugrave" unicode="&#xf9;" horiz-adv-x="633" 
d="M351 578l-45 173h-171zM616 36l-36 3l-12 6l-9 11l-6 18l-1 429l-71 -17l-88 -31l-39 -21l-38 -24q17 0 26 -3l21 -5q10 -14 11 -20q5 -20 5 -36l1 -193q-21 -18 -33 -25l-24 -13q-8 -2 -15.5 -3t-14.5 -2l-19 -1h-20l-26 9l-21 13l-23 23l-13 30l1 26l8 29l30 66l13 31
l11 38v19l-3 21l-5 24l-29 36l-38 33l-76 -71l24 -13l18 -13l7 -20l1 -21l-9 -26l-11 -26l-41 -59l-23 -26l-20 -29q-2 -8 -4 -15t-4 -12l-3 -27l5 -29l10 -27l18 -24l25 -23l39 -21l26 -9l47 -9l49 -5l142 100v-100h236z" />
    <glyph glyph-name="uacute" unicode="&#xfa;" horiz-adv-x="633" 
d="M495 751h-172l-42 -173zM615 36l-36 3l-12 6l-9 11l-6 18l-1 429l-71 -17l-88 -31l-39 -21l-38 -24q17 0 26 -3l21 -5q10 -14 11 -20q5 -20 5 -36l1 -193q-21 -18 -33 -25l-24 -13q-8 -2 -15.5 -3t-14.5 -2l-19 -1h-20l-26 9l-21 13l-23 23l-13 30l1 26l8 29l30 66l13 31
l11 38v19l-3 21l-5 24l-29 36l-38 33l-76 -71l24 -13l18 -13l7 -20l1 -21l-9 -26l-11 -26l-41 -59l-23 -26l-20 -29q-2 -8 -4 -15t-4 -12l-3 -27l5 -29l10 -27l18 -24l25 -23l39 -21l26 -9l47 -9l49 -5l142 100v-100h236z" />
    <glyph glyph-name="ucircumflex" unicode="&#xfb;" horiz-adv-x="634" 
d="M457 578l-96 173h-67l-97 -173l130 93zM616 36l-36 3l-12 6l-9 11l-6 18l-1 429l-71 -17l-88 -31l-39 -21l-38 -24q17 0 26 -3l21 -5q10 -14 11 -20q5 -20 5 -36l1 -193q-21 -18 -33 -25l-24 -13q-8 -2 -15.5 -3t-14.5 -2l-19 -1h-20l-26 9l-21 13l-23 23l-13 30l1 26
l8 29l30 66l13 31l11 38v19l-3 21l-5 24l-29 36l-38 33l-76 -71l24 -13l18 -13l7 -20l1 -21l-9 -26l-11 -26l-41 -59l-23 -26l-20 -29q-2 -8 -4 -15t-4 -12l-3 -27l5 -29l10 -27l18 -24l25 -23l39 -21l26 -9l47 -9l49 -5l142 100v-100h236z" />
    <glyph glyph-name="udieresis" unicode="&#xfc;" horiz-adv-x="635" 
d="M515 666l-8 29l-15 30q-24 16 -30 17l-37 9l-38 -9l-28 -17l-15 -29l-7 -30l6 -27l16 -33l29 -17l38 -9l37 9l29 17l15 29q2 4 4 11.5t4 19.5zM271 666l-7 30l-15 29q-22 16 -28 17l-38 9l-37 -10l-27 -16l-16 -30q-3 -4 -6 -29l7 -32q1 -8 15 -28q18 -13 28 -17l37 -9
l36 9l29 17l16 29zM617 36l-36 3l-12 6l-9 11l-6 18l-1 429l-71 -17l-88 -31l-39 -21l-38 -24q17 0 26 -3l21 -5q10 -14 11 -20q5 -20 5 -36l1 -193q-21 -18 -33 -25l-24 -13q-8 -2 -15.5 -3t-14.5 -2l-19 -1h-20l-26 9l-21 13l-23 23l-13 30l1 26l8 29l30 66l13 31l11 38
v19l-3 21l-5 24l-29 36l-38 33l-76 -71l24 -13l18 -13l7 -20l1 -21l-9 -26l-11 -26l-41 -59l-23 -26l-20 -29q-2 -8 -4 -15t-4 -12l-3 -27l5 -29l10 -27l18 -24l25 -23l39 -21l26 -9l47 -9l49 -5l142 100v-100h236z" />
    <glyph glyph-name="yacute" unicode="&#xfd;" horiz-adv-x="593" 
d="M493 751h-172l-42 -173zM577 524l-56 -28l-52 -19l-39 -10q-8 -2 -13.5 -2.5t-9.5 -1.5h-29l16 -11l18 -17l15 -45l1 -64l-15 -72l-24 -67l-19 -38l-18 -30l-26 23l-17 23l-15 32l-10 30l-17 71l-14 78l-16 61l-27 45q-7 5 -11.5 7.5t-6.5 3.5l-23 8l-152 -77l37 -7
l26 -11l21 -27l16 -27l13 -42l30 -133l10 -39l17 -43l18 -31l31 -31l33 -17l47 -13l-24 -41q-7 -10 -31 -31l-48 -16q-8 -2 -12.5 -3.5t-6.5 -2.5q-6 -1 -13.5 -2t-15.5 -3l-89 -5l1 -143q29 0 47 3l37 6l32 16l33 19l23 23q16 16 33 40l49 97z" />
    <glyph glyph-name="thorn" unicode="&#xfe;" horiz-adv-x="631" 
d="M614 271l-6 35l-10 41l-16 32l-21 35l-23 24l-30 25q-13 7 -30 12t-37 10l-186 -94l-5 373l-71 -12l-39 -11l-49 -15l-32 -18l-45 -33l35 -4l22 -17l10 -279q0 1 2 -7l1 -517l-6 -32l-10 -23l-21 -7l-28 -1v-33h302l1 35l-28 1l-22 5l-12 22l-5 31l1 154l80 1l59 7l59 18
l43 19l39 30l29 29l24 39l14 34l9 45q1 5 1.5 11.5t0.5 14.5v20zM472 235l-7 -42l-7 -37l-13 -27l-18 -29l-22 -22l-19 -15l-25 -13l-24 -7l-20 -3h-21l-30 8q-6 5 -10 19l-1 279l37 14l37 9l40 -2l31 -5q20 -11 26 -18l24 -25l14 -38q2 -5 4 -16.5t4 -29.5z" />
    <glyph glyph-name="ydieresis" unicode="&#xff;" horiz-adv-x="595" 
d="M512 666l-8 29l-15 30q-24 16 -30 17l-37 9l-38 -9l-28 -17l-15 -29l-7 -30l6 -27l16 -33l29 -17l38 -9l37 9l29 17l15 29q2 4 4 11.5t4 19.5zM268 666l-7 30l-15 29q-22 16 -28 17l-38 9l-37 -10l-27 -16l-16 -30q-3 -4 -6 -29l7 -32q1 -8 15 -28q18 -13 28 -17l37 -9
l36 9l29 17l16 29zM578 524l-56 -28l-52 -19l-39 -10q-8 -2 -13.5 -2.5t-9.5 -1.5h-29l16 -11l18 -17l15 -45l1 -64l-15 -72l-24 -67l-19 -38l-18 -30l-26 23l-17 23l-15 32l-10 30l-17 71l-14 78l-16 61l-27 45q-7 5 -11.5 7.5t-6.5 3.5l-23 8l-152 -77l37 -7l26 -11
l21 -27l16 -27l13 -42l30 -133l10 -39l17 -43l18 -31l31 -31l33 -17l47 -13l-24 -41q-7 -10 -31 -31l-48 -16q-8 -2 -12.5 -3.5t-6.5 -2.5q-6 -1 -13.5 -2t-15.5 -3l-89 -5l1 -143q29 0 47 3l37 6l32 16l33 19l23 23q16 16 33 40l49 97z" />
    <glyph glyph-name="longs" unicode="&#xe000;" horiz-adv-x="445" 
d="M104 590l1 -487l-6 -37l-10 -22l-27 -9h-21v-33h299l1 34l-36 3q-13 7 -22 17l-5 18l-1 456l-5 35l-7 28l-24 34l-8 17l-6 25l3 21q3 8 12 17l22 6l19 1l12 -12l5 -5q2 -2 5 -9.5t8 -18.5l11 -26l15 -18l21 -10l20 -1l19 7l18 10l8 15q2 8 2 12v11l-17 35l-17 23l-24 13
l-35 16l-31 4h-47l-37 -9l-39 -17l-28 -25l-24 -28l-15 -41q-4 -12 -9 -50z" />
    <glyph glyph-name="minus" unicode="&#xe001;" horiz-adv-x="667" 
d="M603 361h-539v-109h539v109z" />
    <glyph glyph-name="DST" unicode="&#xe002;" horiz-adv-x="1426" 
d="M1415 -37v837h-1404v-837h1404zM1390 562q0 -29 -22 -50t-51 -21h-146q-35 0 -35 -45v-302q0 -30 19 -42v-56q-72 16 -72 86v322q0 96 115 96q16 0 48 -3q17 -1 29 -1.5t20 -0.5q40 0 40 21q0 19 -41 19q-8 0 -20 -0.5t-28 -1.5t-27.5 -1.5t-19.5 -0.5q-116 0 -116 88
v131h57v-131q0 -35 37 -35h148q27 0 46 -21t19 -51zM1003 136q0 -39 -23.5 -63.5t-62.5 -24.5h-282q-30 0 -50 20t-20 50q0 31 18 52t47 21h279v-53h-270q-20 0 -20 -18q0 -21 22 -21h250q61 0 61 45v76q0 45 -45 45h-250q-42 0 -67 25t-25 67v89q0 45 26.5 73.5t71.5 28.5
h246q76 0 89 -76h-50q-20 21 -43 21h-244q-41 0 -41 -43v-95q0 -37 41 -37h246q45 0 70.5 -23t25.5 -65v-94zM496 800l-1 -684q0 -30 -21.5 -52t-51.5 -22q-32 0 -52 22t-20 55q0 62 -0.5 104t-1.5 65q-2 9 -87 93l-95 93q-14 14 -27 14q-10 0 -17 -6q-8 -27 -8 -32v-310
q0 -43 35 -43h81q13 6 25 21h53q-14 -72 -77 -72h-82q-88 0 -88 96v330q0 31 26 51q23 17 56 17t52 -19l179 -177q31 -31 31 -75v-151q0 -21 19 -21q6 0 12 7.5t6 13.5l-2 682h56z" />
  </font>
</defs>
</svg>
